<?xml version="1.0" standalone="no"?>
<!DOCTYPE svg PUBLIC "-//W3C//DTD SVG 1.1//EN" "http://www.w3.org/Graphics/SVG/1.1/DTD/svg11.dtd" >
<svg xmlns="http://www.w3.org/2000/svg">
<metadata>Generated by IcoMoon</metadata>
<defs>
<font id="icomoon" horiz-adv-x="1024">
<font-face units-per-em="1024" ascent="960" descent="-64" />
<missing-glyph horiz-adv-x="1024" />
<glyph unicode="&#x20;" horiz-adv-x="512" d="" />
<glyph unicode="&#xe900;" glyph-name="zamknij" horiz-adv-x="1085" d="M631.569 444.934l202.347 208.479c24.527 24.527 24.527 61.317 0 85.844s-61.317 24.527-85.844 0c0 0 0 0 0 0l-208.479-208.479-196.216 202.347c-24.527 24.527-61.317 24.527-85.844 0 0 0 0 0 0 0-24.527-24.527-24.527-61.317 0-85.844l202.347-202.347-202.347-202.347c-24.527-24.527-24.527-61.317 0-85.844 12.263-12.263 24.527-18.395 42.922-18.395s30.659 6.132 42.922 18.395l202.347 202.347 202.347-202.347c12.263-12.263 24.527-18.395 42.922-18.395s30.659 6.132 42.922 18.395c24.527 24.527 24.527 61.317 0 85.844l-202.347 202.347z" />
<glyph unicode="&#xe901;" glyph-name="zamknij_d" horiz-adv-x="1102" d="M582.447 439.88l319.973 320.411c7.888 7.934 12.763 18.869 12.763 30.944s-4.876 23.010-12.766 30.946l0.002-0.002c-7.934 7.888-18.869 12.763-30.944 12.763s-23.010-4.876-30.946-12.766l-319.971-319.971-320.411 319.973c-7.625 6.56-17.621 10.554-28.55 10.554-24.241 0-43.892-19.651-43.892-43.892 0-10.929 3.994-20.925 10.603-28.608l-0.049 0.058 319.973-320.411-319.973-319.973c-8.019-7.955-12.984-18.98-12.984-31.164 0-24.241 19.651-43.892 43.892-43.892 0.090 0 0.179 0 0.269 0.001h-0.014c12.048 0.177 22.894 5.181 30.717 13.16l0.007 0.007 320.411 319.973 319.973-319.973c7.931-8.087 18.955-13.115 31.153-13.168h0.010c24.162 0.105 43.708 19.715 43.708 43.892 0 12.184-4.964 23.208-12.981 31.161l-0.003 0.003z" />
<glyph unicode="&#xe902;" glyph-name="zwrot" horiz-adv-x="1116" d="M558.172 838.926c-217.523 0-391.952-174.429-391.952-391.952s174.429-389.9 391.952-389.9 391.952 174.429 391.952 389.9-176.481 391.952-391.952 391.952zM396.056 432.609c-2.052-10.261-10.261-16.417-18.469-16.417s-16.417 10.261-16.417 18.469c0 0 0 0 0 0 0 114.918 92.345 207.263 207.263 207.263 49.251 0 98.501-18.469 135.439-51.303v14.365c0 10.261 8.208 16.417 18.469 16.417 0 0 0 0 0 0 10.261 0 16.417-8.208 16.417-16.417v-55.407c0-10.261-8.208-16.417-16.417-18.469h-57.459c-10.261 0-18.469 8.208-18.469 18.469s8.208 18.469 18.469 18.469h16.417c-30.782 26.677-71.824 41.042-112.866 41.042-94.397 0-172.377-77.98-172.377-172.377 0-2.052 0-4.104 0-4.104zM574.589 233.555c-49.251 0-96.449 16.417-133.387 49.251v-14.365c0-2.052 0-2.052 0-4.104-2.052-10.261-10.261-16.417-18.469-16.417s-16.417 10.261-16.417 18.469v57.459c0 0 0 2.052 0 2.052s0 2.052 0 2.052v4.104c0 0 0 0 0 2.052v2.052c0 0 2.052 2.052 2.052 2.052h69.772c10.261 0 18.469-8.208 18.469-16.417 0 0 0 0 0 0 0-10.261-8.208-16.417-16.417-16.417h-16.417c30.782-26.677 69.772-41.042 110.814-41.042 94.397 0 172.377 77.98 172.377 172.377 0 10.261 8.208 16.417 16.417 16.417 10.261 0 16.417-8.208 18.469-16.417-6.156-112.866-96.449-201.106-207.263-203.158z" />
<glyph unicode="&#xe903;" glyph-name="minus" horiz-adv-x="1089" d="M580.754 418.45h-105.033v39.205h105.033zM528.677 21.723c-242.374 0-438.857 196.483-438.857 438.857s196.483 438.857 438.857 438.857c242.374 0 438.857-196.483 438.857-438.857v0c0-242.374-196.483-438.857-438.857-438.857v0zM528.677 840.923c-210.058 0-380.343-170.285-380.343-380.343s170.285-380.343 380.343-380.343c210.058 0 380.343 170.285 380.343 380.343v0c0 210.058-170.285 380.343-380.343 380.343v0z" />
<glyph unicode="&#xe904;" glyph-name="dodaj" horiz-adv-x="1060" d="M552.809 427.105h72.922v-42.632h-72.922v-84.141h-45.156v84.141h-73.203v42.632h73.203v76.849h45.156zM530.932-7.906c-232.35 0-420.707 188.357-420.707 420.707s188.357 420.707 420.707 420.707c232.35 0 420.707-188.357 420.707-420.707v0c0-232.35-188.357-420.707-420.707-420.707v0zM530.932 777.413c-201.37 0-364.612-163.243-364.612-364.612s163.243-364.612 364.612-364.612c201.37 0 364.612 163.243 364.612 364.612v0c0 201.37-163.243 364.612-364.612 364.612v0z" />
<glyph unicode="&#xe905;" glyph-name="bez-rejestracji" horiz-adv-x="1001" d="M430.236 420.745c0 0 0 0 0 0-5.84 1.947-9.734 5.84-7.787 11.681s5.84 9.734 11.681 7.787h46.722l-19.468 23.361h-31.148c-1.947 0-5.84 1.947-5.84 3.894-1.947 1.947-1.947 3.894-1.947 7.787 0 1.947 1.947 5.84 3.894 5.84 1.947 1.947 3.894 1.947 7.787 1.947h11.681l-60.35 75.924v-264.76c0-3.894 3.894-7.787 7.787-7.787h210.251l-109.019 134.327h-64.243zM607.392 582.327h-210.251l44.776-56.456h73.977c0 0 0 0 0 0 5.84 0 9.734-5.84 7.787-11.681 0-5.84-5.84-9.734-11.681-7.787h-54.51l19.468-23.361h36.989c1.947 0 1.947 0 3.894 0 5.84-1.947 9.734-5.84 7.787-11.681 0 0 0 0 0 0-1.947-5.84-5.84-7.787-11.681-7.787h-21.414l19.468-23.361h1.947c0 0 1.947 0 3.894 0 5.84-1.947 9.734-5.84 7.787-11.681 0-1.947 0-1.947-1.947-3.894l91.498-112.913v262.814c0 3.894-3.894 7.787-7.787 7.787zM560.669 529.764v0c0 0 1.947 0 0 0 7.787 0 13.627-5.84 13.627-13.627s-5.84-13.627-13.627-13.627c-7.787 0-13.627 5.84-13.627 13.627s7.787 13.627 13.627 13.627zM560.669 486.935c7.787 0 13.627-5.84 13.627-13.627s-5.84-13.627-13.627-13.627c-7.787 0-13.627 5.84-13.627 13.627 1.947 7.787 7.787 13.627 13.627 13.627zM562.616 416.852c-7.787 0-13.627 5.84-13.627 13.627 0 0 0 0 0 0 0 7.787 5.84 13.627 13.627 13.627v0c7.787 0 13.627-5.84 13.627-13.627s-7.787-13.627-13.627-13.627zM500.319 819.833c-204.411 0-371.833-165.475-371.833-371.833s165.475-371.833 371.833-371.833 371.833 165.475 371.833 371.833-167.422 371.833-371.833 371.833zM659.954 237.749c-1.947-1.947-3.894-1.947-5.84-1.947h-1.947c-3.894 0-7.787 1.947-9.734 5.84l-19.468 23.361c-3.894-1.947-7.787-1.947-11.681-1.947h-219.985c-17.521 0-33.095 15.574-33.095 33.095v278.388c0 3.894 0 9.734 1.947 13.627l-23.361 29.202c-1.947 1.947-3.894 5.84-1.947 9.734 0 3.894 1.947 5.84 3.894 7.787 5.84 3.894 13.627 3.894 17.521-1.947l23.361-27.255c3.894 1.947 7.787 1.947 11.681 1.947h218.038c17.521 0 33.095-15.574 33.095-33.095v-280.335c0-3.894 0-7.787-1.947-11.681l21.414-25.308c1.947-1.947 3.894-5.84 3.894-9.734-1.947-3.894-3.894-7.787-5.84-9.734z" />
<glyph unicode="&#xe906;" glyph-name="cart" horiz-adv-x="1040" d="M918.426 20.848c0-46.502-37.698-84.2-84.2-84.2s-84.2 37.698-84.2 84.2c0 46.502 37.698 84.2 84.2 84.2s84.2-37.698 84.2-84.2zM481.235 20.848c0-46.502-37.698-84.2-84.2-84.2s-84.2 37.698-84.2 84.2c0 46.502 37.698 84.2 84.2 84.2s84.2-37.698 84.2-84.2zM1031.772 732.013c-6.118 6.705-14.864 10.922-24.596 11.011h-761.701l-17.488 187.83c-2.005 16.5-15.926 29.158-32.804 29.158-0.308 0-0.615-0.004-0.921-0.013l0.045 0.001h-161.923c-17.886 0-32.385-14.499-32.385-32.385v0c0-17.886 14.499-32.385 32.385-32.385v0h133.424l28.498-279.155h-160.627c-17.886 0-32.385-14.499-32.385-32.385v0c0-17.886 14.499-32.385 32.385-32.385v0h388.615c17.886 0 32.385 14.499 32.385 32.385v0c0 17.886-14.499 32.385-32.385 32.385v0h-163.218l-5.829 64.769h718.29l-55.701-406.102h-626.318l-11.011 119.175h161.923l5.182 3.886v4.534c4.381 2.811 7.348 7.496 7.769 12.896l0.004 0.058c0.173 0.974 0.272 2.094 0.272 3.238s-0.099 2.265-0.288 3.355l0.017-0.116c0.173 0.974 0.272 2.094 0.272 3.238s-0.099 2.265-0.288 3.355l0.017-0.116c0.144 0.973 0.226 2.096 0.226 3.238s-0.082 2.265-0.241 3.364l0.015-0.125c0.217 1.071 0.341 2.302 0.341 3.562s-0.124 2.491-0.361 3.682l0.020-0.12-3.886 5.829v4.534l-6.477 3.886h-3.886c-1.849 0.437-3.972 0.688-6.153 0.688s-4.304-0.251-6.341-0.725l0.188 0.037h-281.746c-17.886 0-32.385-14.499-32.385-32.385v0c0-17.886 14.499-32.385 32.385-32.385v0h68.655l14.249-158.037c1.377-16.381 15.013-29.155 31.632-29.155 0.265 0 0.529 0.003 0.792 0.010l-0.039-0.001h682.019c16.314 0.122 29.806 12.052 32.359 27.66l0.026 0.191 64.769 470.872c0.352 1.881 0.554 4.046 0.554 6.258 0 8.74-3.147 16.744-8.37 22.942l0.044-0.054z" />
<glyph unicode="&#xe907;" glyph-name="check-mark" horiz-adv-x="1097" d="M402.745 85.958c-17.138 0-34.276 8.569-47.13 21.423l-201.372 209.941c-25.707 25.707-25.707 64.268 0 89.975s64.268 25.707 89.975 0c0 0 0 0 0 0l149.958-154.243 449.874 535.565c21.423 29.992 59.983 34.276 89.975 12.854s34.276-59.983 12.854-89.975c0 0 0 0-4.285-4.285l-488.435-599.833c-12.854-12.854-29.992-21.423-51.414-21.423v0z" />
<glyph unicode="&#xe908;" glyph-name="Close" horiz-adv-x="1140" d="M645.497 439.624l276.941 277.464c7.824 9.095 12.588 21.017 12.588 34.053 0 28.913-23.439 52.352-52.352 52.352-13.035 0-24.958-4.764-34.121-12.646l0.069 0.058-276.941-276.941-277.464 276.941c-9.095 7.824-21.017 12.588-34.053 12.588-28.913 0-52.352-23.439-52.352-52.352 0-13.035 4.764-24.958 12.646-34.121l-0.058 0.069 276.941-277.464-276.941-276.941c-9.408-9.463-15.224-22.506-15.224-36.908s5.815-27.445 15.226-36.91l-0.002 0.003c9.463-9.408 22.506-15.224 36.908-15.224s27.445 5.815 36.91 15.226l-0.003-0.002 277.464 276.941 276.941-276.941c9.463-9.408 22.506-15.224 36.908-15.224s27.445 5.815 36.91 15.226l-0.003-0.002c9.408 9.463 15.224 22.506 15.224 36.908s-5.815 27.445-15.226 36.91l0.002-0.003z" />
<glyph unicode="&#xe909;" glyph-name="dalej" horiz-adv-x="872" d="M283.134 70.96c-0.141-0.002-0.307-0.002-0.473-0.002-11.739 0-22.478 4.287-30.735 11.38l0.063-0.053c-9.978 8.699-16.249 21.432-16.249 35.63 0 11.848 4.367 22.677 11.578 30.964l-0.049-0.057 244.911 283.134-247.27 284.549c-7.041 8.195-11.328 18.933-11.328 30.673 0 26.063 21.128 47.191 47.191 47.191 14.323 0 27.156-6.381 35.811-16.456l0.053-0.063 271.336-317.11c7.164-8.23 11.532-19.059 11.532-30.909s-4.367-22.679-11.58-30.966l0.049 0.057-271.808-311.919c-8.161-9.29-19.828-15.33-32.913-16.039l-0.12-0.005z" />
<glyph unicode="&#xe90a;" glyph-name="dla-dzieci" horiz-adv-x="1106" d="M1057.675 641.117c-1.272 0.446-2.739 0.703-4.266 0.703-5.795 0-10.724-3.708-12.543-8.881l-0.029-0.093-93.051-270.142h-130.566v88.62c0 0 0 0 0 0 0 34.616-28.020 62.688-62.616 62.772h-16.107v9.896c-0.497 24.087-20.141 43.424-44.301 43.424-0.003 0-0.006 0-0.009 0h-73.849v38.106c51.333 20.849 86.891 70.286 86.995 128.042v80.214c0 0 0 0.001 0 0.001 0 7.29-5.868 13.209-13.137 13.292h-111.373v19.792c15.917 5.689 27.103 20.637 27.103 38.198 0 22.351-18.119 40.47-40.47 40.47s-40.47-18.119-40.47-40.47c0-17.561 11.185-32.51 26.82-38.11l0.282-0.088v-19.792h-111.070c-7.341 0-13.293-5.951-13.293-13.293v-80.348c0.167-57.71 35.707-107.077 86.071-127.575l0.924-0.332v-37.811h-73.85c-23.982 0-43.424-19.441-43.424-43.424v0-9.896h-17.429c-34.668 0-62.772-28.104-62.772-62.772v0-88.62h-127.908l-92.903 269.847-2.068-0.738v0.738c-1.862 5.283-6.811 9.002-12.628 9.002-7.378 0-13.359-5.981-13.359-13.359 0-1.56 0.268-3.058 0.759-4.451l-0.029 0.093 95.266-277.084v-308.692h802.155v308.692l95.414 277.084c0.449 1.284 0.709 2.765 0.709 4.307 0 5.824-3.705 10.783-8.886 12.649l-0.094 0.029zM570.267 898.705c7.586 0 13.736-6.15 13.736-13.736s-6.15-13.736-13.736-13.736v0c-7.586 0-13.736 6.15-13.736 13.736s6.15 13.736 13.736 13.736v0zM754.596 487.362c19.904 0 36.039-16.135 36.039-36.039v0-88.62h-56.126c2.295 4.889 3.739 10.591 3.985 16.602l0.003 0.088v107.968zM457.868 733.429v67.056h221.549v-67.056c-5.256-57.006-52.842-101.3-110.775-101.3s-105.519 44.294-110.742 100.862l-0.033 0.437zM544.863 567.563v30.278c7.26-1.315 15.617-2.067 24.149-2.067s16.888 0.752 25.007 2.193l-0.858-0.126v-30.278h-47.855zM426.704 523.991c0.084 9.235 7.59 16.69 16.837 16.69 0 0 0 0 0.001 0h250.646c0 0 0 0 0.001 0 9.247 0 16.753-7.455 16.837-16.682v-144.606c-0.084-9.235-7.59-16.69-16.837-16.69 0 0 0 0-0.001 0h-122.147v83.007c0 7.341-5.951 13.293-13.293 13.293v0h-77.099c-7.341 0-13.293-5.951-13.293-13.293v0-83.007h-23.78c-8.994 0.325-16.171 7.657-16.247 16.683v0.007zM544.863 362.704h-49.922v69.714h50.365zM347.832 451.323c0.084 19.922 16.253 36.039 36.186 36.039 0 0 0 0 0 0h16.69v-107.968c0-0.010 0-0.022 0-0.035 0-6.003 1.194-11.728 3.357-16.949l-0.108 0.294h-56.126zM943.947 65.089h-748.984v270.881h748.984zM478.546 289.888c-32.629 0-59.080-26.451-59.080-59.080s26.451-59.080 59.080-59.080v0h181.818c32.629 0 59.080 26.451 59.080 59.080s-26.451 59.080-59.080 59.080v0zM692.415 230.808c0-17.701-14.35-32.051-32.051-32.051v0h-181.818c-17.701 0-32.051 14.35-32.051 32.051s14.35 32.051 32.051 32.051h181.818c0 0 0.001 0 0.001 0 17.597 0 31.882-14.182 32.049-31.74v-0.016zM660.659 736.974c0 19.496-15.804 35.3-35.3 35.3v0h-110.036c-19.496 0-35.3-15.804-35.3-35.3s15.804-35.3 35.3-35.3h110.036c19.496 0 35.3 15.804 35.3 35.3v0zM506.609 736.974c0 4.813 3.902 8.714 8.714 8.714v0h110.036c0.34 0.047 0.733 0.074 1.132 0.074 4.813 0 8.714-3.902 8.714-8.714s-3.902-8.714-8.714-8.714c-0.399 0-0.792 0.027-1.177 0.079l0.045-0.005h-110.036c0 0-0.001 0-0.001 0-4.761 0-8.63 3.818-8.713 8.559v0.008z" />
<glyph unicode="&#xe90b;" glyph-name="dodaj-do-koszyka" horiz-adv-x="953" d="M462.979 777.532c-187.915 0-340.426-157.957-340.426-354.043s152.511-354.043 340.426-354.043 340.426 157.957 340.426 354.043-152.511 354.043-340.426 354.043zM411.234 208.34c-19.064 0-35.404 16.34-35.404 35.404s16.34 35.404 35.404 35.404 35.404-16.34 35.404-35.404c0-19.064-16.34-35.404-35.404-35.404zM596.426 208.34c-19.064 0-35.404 16.34-35.404 35.404s16.34 35.404 35.404 35.404 35.404-16.34 35.404-35.404c0-19.064-16.34-35.404-35.404-35.404zM653.617 330.894c0-5.447-8.17-10.894-13.617-10.894h-285.957c-8.17 0-13.617 5.447-13.617 13.617l-5.447 65.362h-29.957c-8.17 0-13.617 5.447-13.617 13.617s5.447 13.617 13.617 13.617h119.83c2.723 0 2.723 0 5.447 0h2.723l2.723-2.723v-2.723l2.723-2.723c0 0 0-2.723 0-2.723s0-2.723 0-2.723c0 0 0-2.723 0-2.723s0-2.723 0-2.723-2.723-5.447-2.723-5.447v-2.723l-2.723-2.723h-68.085l5.447-49.021h264.17l24.511 171.574h-307.745l2.723-27.234h68.085c8.17 0 13.617-5.447 13.617-13.617s-5.447-13.617-13.617-13.617h-163.404c-8.17 0-13.617 5.447-13.617 13.617s5.447 13.617 13.617 13.617h68.085l-10.894 117.106h-57.191c-8.17 0-13.617 5.447-13.617 13.617s5.447 13.617 13.617 13.617h68.085c8.17 0 13.617-5.447 13.617-13.617l8.17-78.979h321.362c2.723 0 8.17-2.723 10.894-5.447s2.723-8.17 2.723-13.617l-29.957-193.362z" />
<glyph unicode="&#xe90c;" glyph-name="dodaj-do-ulubionych" horiz-adv-x="1028" d="M540.156 790.824c-215.030-0.001-389.346-174.317-389.346-389.347s174.317-389.347 389.347-389.347c214.691 0 388.796 173.766 389.346 388.328v0.052c0 0.215 0.001 0.47 0.001 0.725 0 215.079-174.288 389.452-389.335 389.589h-0.013zM540.156 47.656c-195.542 0.001-354.060 158.52-354.060 354.062s158.519 354.062 354.062 354.062c195.543 0 354.062-158.519 354.062-354.062 0-0.425-0.001-0.849-0.002-1.274v0.065c-0.275-195.384-158.659-353.683-354.049-353.82h-0.013zM737.85 533.192c-24.838 27.041-60.348 43.941-99.806 43.986h-1.458c-30.127-0.11-57.768-10.663-79.513-28.224l0.242 0.189c-6.322-4.799-11.925-9.789-17.115-15.18l-0.044-0.046c-24.322 25.83-58.532 42.113-96.551 42.776l-0.121 0.002h-1.45c-39.543-0.036-75.132-16.934-99.969-43.891l-0.086-0.095c-24.162-27.229-38.919-63.278-38.919-102.774 0-0.574 0.003-1.147 0.009-1.719l-0.001 0.087c1.322-45.898 19.462-87.319 48.441-118.538l-0.105 0.115c33.989-37.457 70.159-71.482 108.847-102.495l1.842-1.428c14.984-12.809 32.143-27.31 49.786-42.777 7.646-6.588 17.674-10.601 28.639-10.601s20.993 4.012 28.696 10.649l-0.057-0.048c15.951 14.017 31.418 27.068 45.194 38.911l4.109 3.625c40.567 31.977 76.72 65.295 110.161 101.174l0.528 0.573c28.925 31.163 47.077 72.68 48.331 118.417l0.005 0.248c0.013 0.751 0.021 1.637 0.021 2.524 0 39.758-14.954 76.024-39.544 103.479l0.13-0.147zM703.048 331.631c-32.929-36.244-67.994-69.163-105.506-99.149l-1.8-1.39-4.592-3.867-45.678-39.394c-1.367-1.244-3.193-2.006-5.196-2.006s-3.829 0.762-5.202 2.011l0.006-0.006c-17.884 15.709-35.044 30.21-50.753 43.502-39.144 31.433-74.12 64.264-106.42 99.583l-0.644 0.714c-23.631 25.304-38.326 59.217-38.909 96.556l-0.001 0.116c-0.013 0.645-0.020 1.406-0.020 2.168 0 30.383 11.373 58.111 30.093 79.157l-0.105-0.121c18.443 20.084 44.825 32.627 74.135 32.627 0.021 0 0.043 0 0.064 0h1.205c21.825-0.006 41.883-7.564 57.705-20.203l-0.185 0.143c9.203-7.366 17.168-15.715 23.912-25.007l0.256-0.37 14.259-20.301 14.501 20.301c6.925 9.718 14.9 18.077 23.911 25.181l0.257 0.195c15.642 12.501 35.71 20.060 57.543 20.060 0.077 0 0.154 0 0.23 0h-0.012c29.33-0.403 55.678-12.837 74.394-32.58l0.044-0.047c19.478-21.142 31.42-49.488 31.42-80.623 0-0.205-0.001-0.409-0.002-0.613v0.032c-0.803-37.419-15.449-71.27-39.001-96.772l0.091 0.1z" />
<glyph unicode="&#xe90d;" glyph-name="favourite-fill" horiz-adv-x="1151" d="M1059.585 859.993c-56.302 61.562-136.978 100.026-226.639 100.026-1.209 0-2.417-0.007-3.623-0.021l0.184 0.002c-0.812 0.008-1.773 0.013-2.734 0.013-67.516 0-129.635-23.105-178.882-61.838l0.622 0.471c-28.093-22.149-52.205-47.625-72.251-76.165l-0.76-1.141c-20.99 29.546-45.077 54.997-72.265 76.73l-0.746 0.576c-48.626 38.262-110.745 61.367-178.26 61.367-0.961 0-1.922-0.005-2.881-0.014l0.147 0.001c-1.022 0.012-2.23 0.019-3.439 0.019-89.66 0-170.336-38.465-226.427-99.792l-0.211-0.234c-56.768-63.632-91.46-148.025-91.46-240.52 0-1.937 0.015-3.871 0.046-5.801l-0.004 0.291c2.953-108.645 45.81-206.742 114.37-280.663l-0.252 0.274c87.777-96.631 181.202-184.416 281.129-264.418l4.782-3.7c39.267-33.745 84.055-71.784 130.684-112.892 11.859-10.274 27.439-16.534 44.482-16.534s32.623 6.26 44.567 16.606l-0.085-0.072c46.629 41.107 91.418 79.147 131.298 112.892 104.599 83.884 198.011 171.657 284.158 266.167l1.752 1.95c68.078 73.779 110.868 171.793 114.103 279.746l0.015 0.643c0.025 1.596 0.040 3.479 0.040 5.366 0 92.345-34.696 176.586-91.763 240.398l0.305-0.347z" />
<glyph unicode="&#xe90e;" glyph-name="favourite-stroke" horiz-adv-x="1050" d="M524.989 66.304c-0.125-0.001-0.272-0.001-0.419-0.001-20.443 0-39.104 7.625-53.296 20.186l0.085-0.074c-25.139 22.206-49.44 41.899-71.646 61.591l-17.597 15.921c-72.664 58.292-137.553 119.331-197.364 185.071l-1.235 1.378c-52.097 56.12-84.812 130.868-87.139 213.222l-0.010 0.461c-0.027 1.466-0.043 3.195-0.043 4.927 0 72.065 27.034 137.816 71.514 187.664l-0.243-0.277c44.805 49.501 109.297 80.468 181.022 80.468 1.171 0 2.341-0.008 3.508-0.025l-0.176 0.002c54.958-0.128 105.552-18.701 145.947-49.855l-0.56 0.415q14.664-11.732 27.653-25.139c8.677 8.73 17.831 16.954 27.431 24.643l0.641 0.496c39.384 30.835 89.629 49.446 144.221 49.446 0.558 0 1.115-0.002 1.672-0.006h2.848c71.336-0.194 135.453-30.938 179.988-79.831l0.175-0.195 3.352-3.771c42.461-48.86 68.341-113.116 68.341-183.417 0-1.802-0.017-3.601-0.051-5.395l0.004 0.269c-2.108-83.388-34.855-158.741-87.352-215.582l0.204 0.223c-61.239-66.526-126.39-127.163-195.942-182.506l-3.495-2.686c-25.977-22.625-56.563-48.183-87.987-76.255-14.31-12.864-33.199-20.888-53.952-21.366l-0.097-0.002zM349.853 765.591c-51.055-0.013-96.99-21.923-128.927-56.849l-0.12-0.133c-33.045-37.214-53.23-86.493-53.23-140.487 0-0.987 0.007-1.971 0.020-2.955l-0.002 0.149c1.801-65.019 27.615-123.682 68.846-167.737l-0.133 0.143c58.683-64.807 121.116-123.654 187.907-177.298l3.151-2.447 18.854-15.921c22.206-19.273 46.926-39.804 72.065-62.010 1.865-1.54 4.28-2.475 6.913-2.475s5.048 0.934 6.932 2.49l-0.018-0.015c31.843 28.072 62.429 54.049 89.663 77.512 70.27 56.15 132.971 115.001 190.722 178.437l1.173 1.307c40.907 44.023 66.666 102.616 68.704 167.192l0.010 0.402c0.026 1.236 0.041 2.694 0.041 4.155 0 53.7-20.205 102.681-53.427 139.755l0.174-0.198-2.514 2.933c-30.728 33.314-74.597 54.109-123.324 54.109-1.571 0-3.136-0.022-4.696-0.065l0.23 0.005c-0.222 0.001-0.485 0.002-0.748 0.002-37.802 0-72.583-12.936-100.157-34.623l0.348 0.264c-16.109-12.994-29.949-27.899-41.441-44.549l-0.458-0.701c-6.581-9.022-17.041-14.873-28.877-15.083h-0.033c-0.008 0-0.018 0-0.027 0-11.911 0-22.44 5.917-28.808 14.972l-0.075 0.112c-11.95 17.352-25.79 32.257-41.5 44.939l-0.399 0.312c-26.698 21.486-61.015 34.486-98.369 34.486-2.243 0-4.475-0.047-6.695-0.14l0.318 0.011z" />
<glyph unicode="&#xe90f;" glyph-name="filtry" horiz-adv-x="1395" d="M170.218 638.402h139.942c18.206-54.196 68.54-92.544 127.832-92.544s109.626 38.348 127.555 91.595l0.277 0.949h634.449c22.064 2.81 38.949 21.467 38.949 44.068s-16.885 41.258-38.729 44.045l-0.22 0.023h-636.468c-19.573 51.669-68.65 87.735-126.15 87.735s-106.576-36.066-125.842-86.81l-0.308-0.925h-141.288c-2.299 0.422-4.944 0.663-7.646 0.663-24.524 0-44.405-19.881-44.405-44.405s19.881-44.405 44.405-44.405c0.323 0 0.645 0.003 0.966 0.010l-0.048-0.001zM1200.273 232.032h-114.376c-18.206 54.196-68.54 92.544-127.832 92.544s-109.626-38.348-127.555-91.595l-0.277-0.949h-660.016c-1.638 0.214-3.532 0.336-5.455 0.336-24.524 0-44.405-19.881-44.405-44.405s19.881-44.405 44.405-44.405c1.923 0 3.817 0.122 5.676 0.359l-0.22-0.023h661.361c19.063-52.648 68.629-89.589 126.823-89.589s107.759 36.941 126.526 88.653l0.297 0.936h115.049c1.638-0.214 3.532-0.336 5.455-0.336 24.524 0 44.405 19.881 44.405 44.405s-19.881 44.405-44.405 44.405c-1.923 0-3.817-0.122-5.676-0.359l0.22 0.023z" />
<glyph unicode="&#xe910;" glyph-name="free-delivery" horiz-adv-x="1145" d="M745.525 350.424c-13.156 0-24.12-10.964-26.313-24.12 0-13.156 10.964-24.12 24.12-26.313 0 0 0 0 0 0 13.156 0 24.12 10.964 24.12 24.12 2.193 13.156-8.771 24.12-21.927 26.313zM473.627 528.034c0 6.578-4.385 15.349-10.964 17.542-4.385 2.193-6.578 2.193-10.964 2.193h-28.505l-15.349-81.131h15.349l6.578 30.698h15.349l10.964-30.698h15.349l-10.964 30.698c0 2.193 0 2.193-2.193 4.385 0 0 0 0 0 0v0c0 0 0 0 0 0 8.771 2.193 15.349 13.156 15.349 26.313zM458.278 523.649c0 0 0 0 0 0 0-8.771-6.578-15.349-15.349-15.349h-13.156l4.385 26.313h13.156c6.578 0 10.964-4.385 10.964-10.964v0zM405.653 534.612l2.193 13.156h-46.047l-15.349-81.131h13.156l6.578 32.891h28.505l2.193 10.964h-26.313l2.193 24.12zM480.206 466.638h50.433l2.193 13.156h-35.084l4.385 21.927h26.313l4.385 10.964h-28.505l4.385 21.927h32.891l4.385 13.156h-48.24zM811.306 466.638l-72.36 67.974h-19.734c-2.193 0-4.385-2.193-4.385-4.385v-67.974c0-2.193 2.193-4.385 4.385-4.385h89.901c2.193 0 4.385 2.193 4.385 4.385-2.193 2.193-2.193 2.193-2.193 4.385v0zM407.846 350.424c-13.156 2.193-26.313-8.771-26.313-21.927 0-2.193 0-2.193 0-4.385 0-13.156 10.964-24.12 24.12-24.12 0 0 0 0 0 0 13.156 0 24.12 10.964 24.12 24.12s-8.771 26.313-21.927 26.313zM572.3 867.906c-230.236 0-418.809-188.574-418.809-418.809s186.381-418.809 418.809-418.809c230.236 0 418.809 186.381 418.809 418.809s-188.574 418.809-418.809 418.809zM405.653 275.872c-26.313 0-48.24 21.927-48.24 48.24s21.927 48.24 48.24 48.24c13.156 0 24.12-4.385 32.891-13.156s15.349-21.927 15.349-35.084c0-26.313-21.927-48.24-48.24-48.24zM745.525 275.872c-26.313 0-48.24 21.927-48.24 50.433s21.927 48.24 50.433 48.24c13.156 0 24.12-4.385 35.084-15.349 8.771-8.771 13.156-21.927 13.156-35.084-2.193-26.313-24.12-48.24-50.433-48.24zM857.353 357.002c0-13.156-10.964-24.12-21.927-24.12 0 0 0 0 0 0h-24.12c-4.385 35.084-39.469 59.203-74.552 54.818-28.505-4.385-50.433-26.313-54.818-54.818h-212.694c-4.385 35.084-39.469 59.203-74.552 54.818-28.505-4.385-50.433-26.313-54.818-54.818h-30.698c-13.156 0-24.12 10.964-24.12 24.12v52.625h572.3v-52.625zM857.353 420.591h-570.107v157.876c0 13.156 10.964 24.12 24.12 24.12h353.028c13.156 0 24.12-10.964 24.12-21.927v0-17.542h46.047c8.771 0 15.349-2.193 21.927-8.771l92.094-92.094c6.578-6.578 8.771-13.156 8.771-21.927v-19.734zM545.987 466.638h50.433l2.193 13.156h-35.084l4.385 21.927h26.313l2.193 10.964h-26.313l4.385 21.927h32.891l4.385 13.156h-48.24z" />
<glyph unicode="&#xe911;" glyph-name="home" horiz-adv-x="965" d="M919.267 591.698l-419.924 333.061c-4.566 3.724-10.458 5.98-16.876 5.98s-12.31-2.256-16.925-6.018l0.049 0.038-419.924-333.061c-6.678-5.32-10.921-13.451-10.921-22.573 0-0.091 0-0.182 0.001-0.273v0.014-574.79c0-0.001 0-0.003 0-0.004 0-15.451 12.386-28.009 27.77-28.288h839.875c15.411 0.279 27.796 12.837 27.796 28.288 0 0.002 0 0.003 0 0.005v0 574.79c0.001 0.077 0.001 0.168 0.001 0.26 0 9.122-4.243 17.254-10.863 22.528l-0.058 0.045zM482.466 382.232c-51.263 0-92.82 41.557-92.82 92.82s41.557 92.82 92.82 92.82c51.263 0 92.82-41.557 92.82-92.82v0 0c0-51.263-41.557-92.82-92.82-92.82v0z" />
<glyph unicode="&#xe912;" glyph-name="Inspiracje" horiz-adv-x="1003" d="M944.422 446.499c-4.504 12.012-16.516 21.021-30.029 21.021h-189.185c-6.006 0-13.513-1.501-18.018-6.006l-202.698-139.636-202.698 139.636c-6.006 3.003-12.012 6.006-18.018 6.006h-189.185c-18.018 0-33.032-15.015-33.032-31.531 0-9.009 4.504-18.018 12.012-25.525l126.123-108.106v-246.24c0-27.026 21.021-48.047 48.047-48.047v0h513.501c27.026 0 48.047 21.021 48.047 48.047v246.24l126.123 108.106c10.51 9.009 13.513 24.023 9.009 36.035zM85.584 438.991c1.501 4.504 6.006 6.006 9.009 6.006h189.185c1.501 0 4.504 0 6.006-1.501l178.674-123.12h-255.249l-124.622 108.106c-3.003 3.003-4.504 7.507-3.003 10.51zM222.217 56.117v241.736h270.264v-267.261h-244.739c-13.513 0-25.525 12.012-25.525 25.525 0 0 0 0 0 0zM786.768 56.117c0-13.513-12.012-25.525-25.525-25.525h-246.24v267.261h270.264l1.501-241.736zM920.399 428.481l-124.622-108.106h-255.249l178.674 123.12c1.501 1.501 3.003 1.501 6.006 1.501h189.185c4.504 0 7.507-3.003 9.009-6.006s0-7.507-3.003-10.51zM274.768 679.226h33.032c4.504 0 7.507 3.003 7.507 9.009 0 4.504-3.003 7.507-7.507 7.507h-33.032c-4.504 0-7.507-3.003-7.507-7.507s3.003-9.009 7.507-9.009zM360.352 821.865c3.003-3.003 9.009-3.003 12.012 0s3.003 9.009 0 12.012v0l-25.525 25.525c-3.003 3.003-9.009 3.003-12.012 0s-3.003-9.009 0-12.012v0l25.525-25.525zM505.994 860.903c4.504 0 7.507 3.003 7.507 9.009v31.531c0 4.504-3.003 7.507-9.009 7.507-4.504 0-7.507-3.003-7.507-7.507v-33.032c1.501-4.504 4.504-7.507 9.009-7.507zM645.63 818.862c1.501 0 4.504 1.501 6.006 3.003l24.023 25.525c3.003 3.003 3.003 7.507 0 10.51 0 0 0 0 0 0-3.003 3.003-7.507 3.003-12.012 0l-25.525-25.525c-3.003-3.003-3.003-9.009 0-12.012 3.003 0 6.006-1.501 7.507-1.501zM704.188 679.226h33.032c4.504 0 7.507 3.003 7.507 9.009 0 4.504-3.003 7.507-7.507 7.507h-33.032c-4.504 0-7.507-3.003-7.507-7.507-1.501-4.504 3.003-9.009 7.507-9.009zM651.636 553.103c-3.003 3.003-9.009 3.003-12.012 0s-3.003-9.009 0-12.012l25.525-25.525c3.003-3.003 9.009-3.003 12.012 1.501 3.003 3.003 3.003 7.507 0 10.51l-25.525 25.525zM340.833 514.065c1.501 0 4.504 1.501 6.006 3.003l25.525 25.525c3.003 3.003 3.003 9.009 0 12.012s-9.009 3.003-12.012 0l-25.525-25.525c-3.003-3.003-3.003-9.009 0-12.012 1.501-1.501 4.504-3.003 6.006-3.003zM421.912 548.598c16.516-10.51 25.525-28.528 25.525-48.047v-40.54c0-10.51 9.009-19.519 19.519-19.519 0 0 0 0 0 0h6.006v-10.51c0-18.018 15.015-33.032 33.032-33.032s33.032 15.015 33.032 33.032v10.51h6.006c10.51 0 19.519 9.009 19.519 19.519 0 0 0 0 0 0v42.041c0 19.519 9.009 37.537 25.525 48.047 45.044 30.029 73.572 81.079 73.572 135.132 1.501 87.085-69.067 157.654-154.651 157.654-84.082 1.501-154.651-66.065-157.654-150.147-6.006-58.557 22.522-112.61 70.569-144.141zM522.51 429.982c-1.501-9.009-9.009-16.516-19.519-16.516-9.009 1.501-15.015 7.507-16.516 16.516v4.504h34.534v-4.504zM546.534 457.009h-82.581v16.516h82.581v-16.516zM546.534 500.551v-10.51h-82.581v10.51c0 1.501 0 4.504 0 6.006h82.581c0-3.003 0-4.504 0-6.006zM364.856 689.736c4.504 72.070 63.062 130.628 135.132 133.63 37.537 1.501 75.073-12.012 102.1-39.038s43.543-63.062 43.543-100.598c0-48.047-25.525-93.091-66.065-120.117-15.015-9.009-25.525-24.023-30.029-39.038h-37.537v124.622l39.038 33.032c3.003 3.003 4.504 7.507 1.501 12.012 0 0 0 0 0 0-3.003 3.003-7.507 4.504-10.51 1.501 0 0 0 0 0 0l-37.537-31.531-37.537 31.531c-3.003 3.003-9.009 3.003-12.012-1.501 0 0 0 0 0 0-3.003-3.003-3.003-9.009 1.501-12.012l39.038-33.032v-124.622h-36.035c-4.504 16.516-15.015 30.029-30.029 39.038-42.041 27.026-67.566 75.073-64.563 126.123z" />
<glyph unicode="&#xe913;" glyph-name="kafelki-2" horiz-adv-x="1264" d="M383.215 757.52h729.703c12.010 0 21.746-9.736 21.746-21.746v-53.157c0-12.010-9.736-21.746-21.746-21.746h-729.703c-12.010 0-21.746 9.736-21.746 21.746v53.157c0 12.010 9.736 21.746 21.746 21.746zM383.215 564.221h729.703c12.010 0 21.746-9.736 21.746-21.746v-53.157c0-12.010-9.736-21.746-21.746-21.746h-729.703c-12.010 0-21.746 9.736-21.746 21.746v53.157c0 12.010 9.736 21.746 21.746 21.746zM383.215 370.922h729.703c12.010 0 21.746-9.736 21.746-21.746v-53.157c0-12.010-9.736-21.746-21.746-21.746h-729.703c-12.010 0-21.746 9.736-21.746 21.746v53.157c0 12.010 9.736 21.746 21.746 21.746zM383.215 177.623h729.703c12.010 0 21.746-9.736 21.746-21.746v-53.157c0-12.010-9.736-21.746-21.746-21.746h-729.703c-12.010 0-21.746 9.736-21.746 21.746v53.157c0 12.010 9.736 21.746 21.746 21.746zM187.5 757.52h57.99c10.676 0 19.33-8.654 19.33-19.33v-57.99c0-10.676-8.654-19.33-19.33-19.33h-57.99c-10.676 0-19.33 8.654-19.33 19.33v57.99c0 10.676 8.654 19.33 19.33 19.33zM187.5 564.221h57.99c10.676 0 19.33-8.654 19.33-19.33v-57.99c0-10.676-8.654-19.33-19.33-19.33h-57.99c-10.676 0-19.33 8.654-19.33 19.33v57.99c0 10.676 8.654 19.33 19.33 19.33zM187.5 370.922h57.99c10.676 0 19.33-8.654 19.33-19.33v-57.99c0-10.676-8.654-19.33-19.33-19.33h-57.99c-10.676 0-19.33 8.654-19.33 19.33v57.99c0 10.676 8.654 19.33 19.33 19.33zM187.5 177.623h57.99c10.676 0 19.33-8.654 19.33-19.33v-57.99c0-10.676-8.654-19.33-19.33-19.33h-57.99c-10.676 0-19.33 8.654-19.33 19.33v57.99c0 10.676 8.654 19.33 19.33 19.33z" />
<glyph unicode="&#xe914;" glyph-name="Kafelki-2_mobile" horiz-adv-x="1233" d="M169.010 844.013h198.835v-198.835h-198.835v198.835zM169.010 545.761h198.835v-198.835h-198.835v198.835zM169.010 247.508h198.835v-198.835h-198.835v198.835zM434.123 844.013h629.644v-198.835h-629.644v198.835zM434.123 545.761h629.644v-198.835h-629.644v198.835zM434.123 247.508h629.644v-198.835h-629.644v198.835z" />
<glyph unicode="&#xe915;" glyph-name="kafelki" horiz-adv-x="1127" d="M652.429 808.232h218.058c24.086 0 43.612-19.526 43.612-43.612v-218.058c0-24.086-19.526-43.612-43.612-43.612h-218.058c-24.086 0-43.612 19.526-43.612 43.612v218.058c0 24.086 19.526 43.612 43.612 43.612zM259.925 808.232h218.058c24.086 0 43.612-19.526 43.612-43.612v-218.058c0-24.086-19.526-43.612-43.612-43.612h-218.058c-24.086 0-43.612 19.526-43.612 43.612v218.058c0 24.086 19.526 43.612 43.612 43.612zM652.429 415.727h218.058c24.086 0 43.612-19.526 43.612-43.612v-218.058c0-24.086-19.526-43.612-43.612-43.612h-218.058c-24.086 0-43.612 19.526-43.612 43.612v218.058c0 24.086 19.526 43.612 43.612 43.612zM259.925 415.727h218.058c24.086 0 43.612-19.526 43.612-43.612v-218.058c0-24.086-19.526-43.612-43.612-43.612h-218.058c-24.086 0-43.612 19.526-43.612 43.612v218.058c0 24.086 19.526 43.612 43.612 43.612z" />
<glyph unicode="&#xe916;" glyph-name="Kafelki_mobile" horiz-adv-x="979" d="M74.944 914.536h213.111v-213.111h-213.111v213.111zM74.944 594.869h213.111v-213.111h-213.111v213.111zM74.944 275.202h213.111v-213.111h-213.111v213.111zM394.611 914.536h213.111v-213.111h-213.111v213.111zM394.611 594.869h213.111v-213.111h-213.111v213.111zM394.611 275.202h213.111v-213.111h-213.111v213.111zM714.278 914.536h213.111v-213.111h-213.111v213.111zM714.278 594.869h213.111v-213.111h-213.111v213.111zM714.278 275.202h213.111v-213.111h-213.111v213.111z" />
<glyph unicode="&#xe917;" glyph-name="kategorie" horiz-adv-x="1760" d="M1027.908 803.664h-949.74c-43.171 0-78.168 34.997-78.168 78.168s34.997 78.168 78.168 78.168v0h949.74c43.171 0 78.168-34.997 78.168-78.168v0c0-43.171-34.997-78.168-78.168-78.168v0zM1031.035 369.832h-952.867c-43.171 0-78.168 34.997-78.168 78.168s34.997 78.168 78.168 78.168v0h952.867c43.171 0 78.168-34.997 78.168-78.168s-34.997-78.168-78.168-78.168v0zM1031.035-64h-952.867c-43.171 0-78.168 34.997-78.168 78.168s34.997 78.168 78.168 78.168v0h952.867c43.171 0 78.168-34.997 78.168-78.168s-34.997-78.168-78.168-78.168v0zM1556.324 289.319c-7.364-9.369-18.697-15.331-31.422-15.331-8.747 0-16.837 2.817-23.41 7.594l0.115-0.080-7.817 7.817-156.336 208.708c-4.88 6.451-7.817 14.608-7.817 23.45 0 12.743 6.098 24.061 15.535 31.196l0.098 0.071c5.991 4.883 13.72 7.841 22.139 7.841 0.461 0 0.92-0.009 1.377-0.026l-0.066 0.002h312.672c21.585 0 39.084-17.498 39.084-39.084v0c-0.224-8.82-3.119-16.923-7.903-23.576l0.086 0.126z" />
<glyph unicode="&#xe918;" horiz-adv-x="1136" d="M994.627 647.519h-69.996v117.493c0 7.593-6.156 13.749-13.749 13.749v0h-62.496v93.744c0 7.593-6.156 13.749-13.749 13.749v0h-531.218c-0.001 0-0.002 0-0.003 0-7.656 0-13.883-6.119-14.058-13.733v-93.76h-62.496c-7.593 0-13.749-6.156-13.749-13.749v0-117.493h-71.558c-7.593 0-13.749-6.156-13.749-13.749v0-609.338c0-0.001 0-0.002 0-0.003 0-7.656 6.119-13.883 13.733-14.058h853.089c7.766 0 14.062 6.296 14.062 14.062v0 609.963c-0.175 7.63-6.402 13.749-14.058 13.749-0.001 0-0.002 0-0.004 0v0zM316.543 856.881h503.407v-78.12h-503.407zM239.673 750.95h656.21v-103.431h-656.21zM980.878 38.181h-824.637v582.152h824.637z" />
<glyph unicode="&#xe919;" horiz-adv-x="1136" d="M666.522 538.776c-119.385-0.733-215.882-97.683-215.882-217.17 0-119.942 97.232-217.174 217.174-217.174s217.174 97.232 217.174 217.174c0 60.524-24.759 115.266-64.701 154.649l-0.025 0.025c-39.419 38.646-93.467 62.497-153.085 62.497-0.231 0-0.461 0-0.692-0.001h0.036zM666.522 127.551c-107.171 0-194.051 86.879-194.051 194.051s86.879 194.051 194.051 194.051c107.171 0 194.051-86.879 194.051-194.051v0c0-107.171-86.879-194.051-194.051-194.051v0z" />
<glyph unicode="&#xe91a;" horiz-adv-x="1136" d="M299.669 572.836v0c8.629 0 15.624-6.995 15.624-15.624v0-437.473c0-8.629-6.995-15.624-15.624-15.624v0 0c-8.629 0-15.624 6.995-15.624 15.624v0 437.473c0 8.629 6.995 15.624 15.624 15.624v0z" />
<glyph unicode="&#xe91b;" horiz-adv-x="1136" d="M299.669 104.115c-8.629 0-15.624 6.995-15.624 15.624v0 437.473c0 8.629 6.995 15.624 15.624 15.624s15.624-6.995 15.624-15.624v0-437.473c0-8.629-6.995-15.624-15.624-15.624v0z" />
<glyph unicode="&#xe91c;" glyph-name="ksiki" horiz-adv-x="1155" d="M854.196 554.127h-144.437c-7.291 0-13.201-5.91-13.201-13.201v0c0-0.001 0-0.002 0-0.003 0-7.148 5.794-12.942 12.942-12.942 0.091 0 0.182 0.001 0.272 0.003h144.423c0.077-0.002 0.168-0.003 0.259-0.003 7.148 0 12.942 5.794 12.942 12.942 0 0.001 0 0.002 0 0.003v0c0 7.291-5.91 13.201-13.201 13.201v0zM854.196 410.726h-144.437c-7.291 0-13.201-5.91-13.201-13.201v0c0-0.001 0-0.002 0-0.003 0-7.148 5.794-12.942 12.942-12.942 0.091 0 0.182 0.001 0.272 0.003h144.423c0.077-0.002 0.168-0.003 0.259-0.003 7.148 0 12.942 5.794 12.942 12.942 0 0.001 0 0.002 0 0.003v0c0 7.291-5.91 13.201-13.201 13.201v0zM960.582 768.971h-278.002c-48.228-1.715-89.893-28.26-112.769-67.179l-0.347-0.639-4.142-7.248-3.106 7.248c-22.765 39.45-64.184 65.904-111.888 67.296l-0.193 0.004h-277.743c-0.001 0-0.002 0-0.003 0-26.837 0-48.627-21.609-48.919-48.377v-536.618c0.293-76.364 62.119-138.19 138.455-138.483h609.096c76.364 0.293 138.19 62.119 138.483 138.455v536.618c0 27.019-21.903 48.922-48.922 48.922v0zM553.416 70.083h-291.462c-0.001 0-0.002 0-0.004 0-55.46 0-101.534 40.189-110.687 93.033l-0.096 0.67v5.436h298.969c0.369 0.005 0.805 0.008 1.241 0.008 25.848 0 49.271-10.38 66.329-27.198l-0.011 0.011 35.721-36.239zM553.416 142.301l-17.86 17.86c-21.726 21.738-51.742 35.189-84.899 35.203h-301.042v524.684c0 12.58 10.198 22.779 22.779 22.779v0h277.743c56.226-2.319 101.22-47.313 103.532-103.324l0.007-0.215zM981.549 163.786c-9.134-53.482-55.133-93.684-110.526-93.703h-291.464v35.721l36.239 36.239c17.103 17.078 40.704 27.652 66.774 27.697h301.048zM983.62 195.624h-301.298c-33.16-0.014-63.176-13.465-84.901-35.203l-17.861-17.861v497.246c1.935 56.388 47.151 101.604 103.358 103.534l0.181 0.005h277.484c0.077 0.001 0.169 0.002 0.26 0.002 12.437 0 22.52-10.082 22.52-22.52 0-0.092-0.001-0.183-0.002-0.274v0.014zM423.215 554.127h-143.401c-7.291 0-13.201-5.91-13.201-13.201v0c0-0.001 0-0.002 0-0.003 0-7.148 5.794-12.942 12.942-12.942 0.091 0 0.182 0.001 0.272 0.003h143.387c7.148 0 12.942 5.794 12.942 12.942v0c0 0.001 0 0.002 0 0.003 0 7.2-5.764 13.053-12.929 13.198h-0.014zM423.215 410.726h-143.401c-7.291 0-13.201-5.91-13.201-13.201v0c0-0.001 0-0.002 0-0.003 0-7.148 5.794-12.942 12.942-12.942 0.091 0 0.182 0.001 0.272 0.003h143.387c7.148 0 12.942 5.794 12.942 12.942v0c0 0.001 0 0.002 0 0.003 0 7.2-5.764 13.053-12.929 13.198h-0.014z" />
<glyph unicode="&#xe91d;" glyph-name="Mineray-swiata" horiz-adv-x="1010" d="M955.277 326.352v0l-46.869 172.861c-1.058 4.084-4.211 7.236-8.215 8.277l-0.080 0.018-172.334 46.342h-3.028c-0.028 0-0.061 0-0.095 0-3.248 0-6.192-1.307-8.332-3.424l0.001 0.001-273.049-272.654c-2.144-2.104-3.474-5.033-3.474-8.272 0-1.133 0.163-2.229 0.466-3.264l-0.021 0.082 46.869-172.861c1.058-4.084 4.211-7.236 8.215-8.277l0.080-0.018 172.334-46.737c0.889-0.236 1.909-0.372 2.961-0.372 3.254 0 6.204 1.297 8.363 3.402l-0.003-0.002 273.181 273.444c2.144 2.104 3.474 5.033 3.474 8.272 0 1.133-0.163 2.229-0.466 3.264l0.021-0.082zM874.837 490.129l-78.992-78.992-50.555 113.354zM466.711 257.629h175.626l-138.368-138.368zM658.925 65.547l-138.368 36.995 138.499 138.499zM665.771 281.195h-185.763l240.926 240.926 57.401-128.23zM682.623 77.922v186.553l112.3 112.432 128.625-57.401zM812.828 393.89l78.992 78.992 34.625-129.284zM507.524 420.221v325.579c-0.045 4.284-2.331 8.024-5.74 10.107l-0.053 0.030-174.046 100.452c-1.649 0.993-3.641 1.58-5.769 1.58-0.008 0-0.017 0-0.025 0h0.001c-0.014 0-0.031 0-0.048 0-2.164 0-4.191-0.587-5.931-1.61l0.055 0.030-173.914-100.452c-3.55-2.047-5.906-5.815-5.924-10.135v-325.582c0-0.009 0-0.019 0-0.029 0-4.319 2.363-8.086 5.867-10.078l0.057-0.030 173.914-100.452c1.681-0.987 3.702-1.57 5.859-1.57s4.178 0.583 5.914 1.6l-0.055-0.030 174.046 100.452c3.49 2.072 5.793 5.822 5.793 10.109 0 0.010 0 0.020 0 0.030v-0.002zM333.61 825.845l138.631-80.045-74.121-42.787-64.51 37.258zM310.044 825.845v-85.575l-64.51-37.258-74.384 42.787zM159.696 725.394l74.121-42.787v-199.192l-74.121-42.787zM310.044 340.176l-138.894 80.045 74.121 42.787 64.51-37.258zM321.893 445.499l-64.642 37.916v199.192l64.642 37.258 64.51-37.258v-199.192zM333.61 340.176v85.575l64.51 37.258 74.121-42.787zM483.958 440.627l-73.989 42.787v199.192l73.989 42.787z" />
<glyph unicode="&#xe91e;" glyph-name="moje-konto" horiz-adv-x="928" d="M615.339 795.596c0-83.664-67.823-151.486-151.486-151.486s-151.486 67.823-151.486 151.486c0 83.664 67.823 151.486 151.486 151.486s151.486-67.823 151.486-151.486zM463.853 505.541v0c233.155 0 422.165-189.010 422.165-422.165v0-135.046h-843.743v135.046c0 0 0 0 0 0 0 232.949 188.675 421.83 421.546 422.165h0.032z" />
<glyph unicode="&#xe91f;" glyph-name="no" horiz-adv-x="1253" d="M1043.883 418.175v273.398c0 49.709-39.767 84.505-84.505 84.505h-104.388c-34.796 0-69.592-24.854-79.534-59.65-29.825 14.913-59.65 19.883-89.476 24.854h-323.107c-34.796 0-69.592-24.854-79.534-59.65-4.971-14.913 0-34.796 4.971-49.709-34.796-14.913-49.709-64.621-29.825-99.417-24.854-14.913-44.738-39.767-44.738-69.592 0-19.883 9.942-39.767 24.854-54.68-14.913-19.883-24.854-39.767-19.883-64.621 4.971-44.738 44.738-79.534 89.476-79.534h213.748c-14.913-44.738-24.854-89.476-24.854-139.184 0-74.563 64.621-139.184 104.388-139.184 24.854 0 44.738 9.942 64.621 19.883 4.971 4.971 4.971 9.942 4.971 14.913v119.301l99.417 213.748h4.971v-4.971c0-9.942 9.942-19.883 19.883-19.883h173.981c34.796 0 74.563 39.767 74.563 89.476 0-4.971 0 0 0 0zM740.66 383.379c-4.971 0-4.971-4.971-9.942-9.942l-104.388-223.689c0 0 0-4.971 0-9.942v-114.33c-9.942-4.971-24.854-9.942-34.796-9.942-39.767 19.883-69.592 59.65-69.592 104.388 4.971 49.709 14.913 99.417 34.796 149.126 4.971 9.942 0 19.883-9.942 19.883 0 0-4.971 0-4.971 0h-238.602c-24.854 0-49.709 19.883-54.68 44.738-4.971 19.883 4.971 39.767 24.854 49.709 4.971 4.971 9.942 14.913 4.971 19.883 0 4.971-4.971 4.971-4.971 4.971-24.854 19.883-29.825 49.709-19.883 69.592 4.971 14.913 19.883 24.854 34.796 24.854v0c9.942 0 14.913 9.942 14.913 19.883 0 0 0 0 0 0 0 4.971 0 9.942-4.971 9.942-19.883 14.913-19.883 44.738-4.971 59.65 4.971 9.942 14.913 14.913 29.825 14.913 9.942 0 14.913 9.942 14.913 19.883 0 0 0 0 0 0 0 4.971 0 9.942-4.971 9.942-9.942 9.942-14.913 24.854-9.942 39.767 4.971 19.883 19.883 34.796 39.767 34.796h318.136c29.825 0 59.65-9.942 84.505-24.854v-288.311l-24.854-14.913zM1009.087 418.175c0-29.825-19.883-49.709-49.709-49.709 0 0 0 0-4.971 0h-154.097v323.107c0 0 0 0 0 0s0 0 0 0c0 29.825 19.883 49.709 49.709 49.709 0 0 0 0 4.971 0h104.388c29.825 0 49.709-19.883 49.709-49.709v-273.398z" />
<glyph unicode="&#xe920;" glyph-name="prasa" horiz-adv-x="985" d="M276.499 530.95h417.132v166.853h-417.132zM297.475 677.065h375.419v-125.14h-375.419zM839.747 697.803h-83.426v62.451h-541.795v-532.022c0-0.004 0-0.009 0-0.014 0-39.78 31.845-72.122 71.434-72.923l0.075-0.001h145.877v-62.451h20.976v104.402h36.469v20.976h-47.672c-9.271 0.077-17.273 5.435-21.152 13.21l-0.062 0.138-28.365 58.637-10.25 20.737-12.395 25.981c-1.28 2.012-2.041 4.464-2.041 7.093 0 4.872 2.61 9.135 6.509 11.465l0.061 0.034c2.025 1.265 4.486 2.016 7.121 2.016 4.802 0 9.022-2.491 11.439-6.252l0.032-0.054 26.458-40.045 2.86-4.291h19.784v171.858c0.793 5.075 5.133 8.911 10.369 8.911s9.576-3.837 10.361-8.852l0.008-0.059v-119.181h20.976v40.998h10.488c5.792 0 10.488-4.696 10.488-10.488v-52.201h20.737v41.713h10.488c5.792 0 10.488-4.696 10.488-10.488v0-52.678h20.976v42.428h10.488c5.792 0 10.488-4.696 10.488-10.488v-96.775l-21.214-41.713v-117.035h20.737v62.451h219.054c0.71-0.025 1.545-0.039 2.384-0.039 40.283 0 72.939 32.656 72.939 72.939 0 0.014 0 0.027 0 0.041v-0.002 427.62c0.002 0.144 0.003 0.313 0.003 0.483 0 22.906-18.569 41.475-41.475 41.475-0.252 0-0.504-0.002-0.756-0.007l0.038 0.001zM756.32 677.065h47.672c-3.594-5.951-5.721-13.139-5.721-20.824 0-0.053 0-0.107 0-0.16v0.008-417.132h-41.952zM589.467 176.507v28.603l20.737 41.713s0 47.672 0 95.345c0.085 1.001 0.133 2.167 0.133 3.344 0 8.209-2.358 15.867-6.433 22.334l0.102-0.174c-1.298 1.968-2.882 3.627-4.714 4.968l-0.054 0.037-2.384 2.145-3.337 1.907c-1.234 0.689-2.662 1.261-4.167 1.642l-0.124 0.027h-2.86c-1.001 0.103-2.162 0.161-3.337 0.161s-2.337-0.059-3.482-0.173l0.144 0.012h-12.395c-6.017 13.095-19.020 22.024-34.108 22.024-3.122 0-6.155-0.382-9.054-1.103l0.257 0.054c-1.747 5.653-4.795 10.472-8.806 14.289l-0.014 0.013-3.337 2.622h-2.145c-4.201 2.327-9.198 3.729-14.515 3.813h-10.513v43.858c0 9.296-1.907 23.836-1.907 23.836-4.391 12.278-15.923 20.905-29.47 20.905-3.527 0-6.917-0.585-10.079-1.662l0.22 0.065c-4.547-1.724-8.436-4.234-11.687-7.397l0.008 0.007c-3.212-3.004-5.672-6.772-7.096-11.015l-0.055-0.188c-1.454-5.072-2.29-10.898-2.29-16.92 0-1.511 0.053-3.010 0.156-4.495l-0.011 0.2v-122.279l-10.726 16.447c-6.272 9.435-16.858 15.568-28.875 15.568-5.635 0-10.956-1.349-15.656-3.741l0.196 0.091c-4.825-2.479-8.823-5.943-11.851-10.152l-0.067-0.098c-4.187-5.909-6.694-13.266-6.694-21.208 0-0.421 0.007-0.841 0.021-1.258l-0.002 0.061c-0.11-0.859-0.172-1.852-0.172-2.86s0.063-2.002 0.184-2.977l-0.012 0.116c-0.039-0.286-0.062-0.617-0.062-0.953s0.022-0.667 0.066-0.991l-0.004 0.038c0.557-2.609 1.464-4.92 2.683-7.027l-0.061 0.115 1.669-3.575 5.721-11.441 10.011-20.976 18.354-37.661 15.97-31.464c5.843-11.838 16.45-20.572 29.25-23.771l0.307-0.065v-22.168h-147.069c-28.727 0.135-51.963 23.454-51.963 52.201 0 0 0 0 0 0.001v0 512h500.559v-511.047c-0.001-0.128-0.001-0.28-0.001-0.431 0-20.232 8.402-38.502 21.908-51.51l0.022-0.021zM860.484 228.231c-0.332-28.576-23.575-51.613-52.198-51.613-24.906 0-45.738 17.442-50.947 40.778l-0.065 0.348h61.497v438.108c-0.076 0.67-0.119 1.446-0.119 2.233 0 11.585 9.391 20.976 20.976 20.976s20.976-9.391 20.976-20.976c0-0.787-0.043-1.563-0.128-2.327l0.008 0.094zM443.59 614.138c0-7.767-6.296-14.063-14.063-14.063s-14.063 6.296-14.063 14.063c0 7.767 6.296 14.063 14.063 14.063s14.063-6.296 14.063-14.063zM497.698 614.138c0-7.767-6.296-14.063-14.063-14.063s-14.063 6.296-14.063 14.063c0 7.767 6.296 14.063 14.063 14.063s14.063-6.296 14.063-14.063zM537.505 628.201c-0.072 0.001-0.156 0.002-0.24 0.002-7.635 0-13.825-6.19-13.825-13.825 0-0.085 0.001-0.169 0.002-0.253v0.013c0-7.767 6.296-14.063 14.063-14.063v0c7.713 0.132 13.932 6.35 14.063 14.051v0.012c-0.132 7.713-6.35 13.932-14.051 14.063h-0.012z" />
<glyph unicode="&#xe921;" glyph-name="procent" horiz-adv-x="1046" d="M523.050 893.698c-243.108 0-442.014-198.906-442.014-442.014s198.906-442.014 442.014-442.014 442.014 198.906 442.014 442.014-198.906 442.014-442.014 442.014zM228.374 488.518v0c-7.367 22.101-14.734 51.568-14.734 73.669s7.367 51.568 14.734 73.669c7.367 22.101 29.468 36.835 44.201 51.568 22.101 7.367 44.201 14.734 73.669 14.734 22.101 0 51.568-7.367 66.302-14.734 22.101-14.734 36.835-29.468 44.201-51.568 14.734-22.101 14.734-51.568 14.734-73.669s-7.367-51.568-14.734-73.669c-7.367-22.101-22.101-36.835-44.201-44.201-22.101-14.734-44.201-22.101-66.302-22.101-29.468 0-51.568 7.367-73.669 22.101-22.101 7.367-36.835 29.468-44.201 44.201zM397.813 201.209h-81.036l331.511 486.216h81.036l-331.511-486.216zM817.727 260.144c-7.367-22.101-29.468-36.835-44.201-51.568-22.101-14.734-44.201-14.734-66.302-14.734s-51.568 7.367-66.302 14.734c-29.468 14.734-44.201 29.468-51.568 51.568-14.734 22.101-14.734 51.568-14.734 73.669s7.367 51.568 14.734 73.669c7.367 22.101 22.101 36.835 44.201 44.201 22.101 14.734 44.201 14.734 66.302 14.734s44.201-7.367 66.302-14.734c22.101-7.367 44.201-22.101 51.568-44.201 14.734-22.101 14.734-51.568 14.734-73.669 0-29.468-7.367-51.568-14.734-73.669zM729.324 392.748c-7.367 7.367-14.734 7.367-29.468 7.367-7.367 0-22.101 0-29.468-7.367s-14.734-14.734-14.734-22.101-7.367-22.101-7.367-36.835c0-14.734 0-22.101 7.367-36.835 0-7.367 7.367-14.734 14.734-22.101s22.101-7.367 29.468-7.367c7.367 0 22.101 0 29.468 7.367s14.734 14.734 14.734 22.101 7.367 22.101 7.367 36.835c0 14.734 0 22.101-7.367 36.835 0 7.367-7.367 14.734-14.734 22.101zM390.446 525.353c7.367 14.734 7.367 22.101 7.367 36.835s0 22.101-7.367 36.835c0 7.367-7.367 14.734-14.734 22.101-14.734 7.367-22.101 14.734-36.835 14.734-7.367 0-22.101 0-29.468-7.367s-7.367-14.734-14.734-29.468c-7.367-7.367-7.367-22.101-7.367-36.835s0-22.101 7.367-36.835c0-7.367 7.367-14.734 14.734-22.101s14.734-7.367 29.468-7.367c7.367 0 22.101 0 29.468 7.367s14.734 14.734 22.101 22.101z" />
<glyph unicode="&#xe922;" glyph-name="question" horiz-adv-x="1072" d="M532.757 870.054c-228.324 0-422.054-186.811-415.135-422.054 0-228.324 186.811-422.054 422.054-415.135 228.324 0 415.135 186.811 415.135 422.054v0c0 228.324-186.811 415.135-422.054 415.135zM532.757 205.838c-20.757 0-34.595 13.838-34.595 34.595s13.838 34.595 34.595 34.595c20.757 0 34.595-13.838 34.595-34.595v0c0-20.757-13.838-34.595-34.595-34.595 0 0 0 0 0 0zM588.108 427.243c-13.838-6.919-20.757-20.757-20.757-34.595v-13.838c0-20.757-13.838-34.595-34.595-34.595 0 0 0 0 0 0-20.757 0-34.595 13.838-34.595 34.595 0 0 0 0 0 0v0 13.838c0 41.514 20.757 76.108 62.27 96.865 34.595 13.838 55.351 48.432 62.27 83.027 6.919 48.432-34.595 89.946-83.027 96.865-48.432 0-89.946-34.595-89.946-83.027 0-6.919 0-13.838 0-13.838 0-20.757-13.838-34.595-34.595-34.595 0 0 0 0 0 0-20.757 0-34.595 13.838-34.595 34.595v0c-6.919 83.027 55.351 159.135 145.297 166.054 83.027 6.919 159.135-62.27 166.054-145.297 0-6.919 0-13.838 0-20.757v0c-6.919-62.27-48.432-117.622-103.784-145.297v0z" />
<glyph unicode="&#xe923;" glyph-name="Return" horiz-adv-x="1002" d="M617.357 675.35c-22.181 18.484-51.755 14.787-66.542-3.697l-170.051-192.231c-14.787-18.484-14.787-44.361 0-62.845l166.354-192.231c7.394-11.090 22.181-18.484 36.968-18.484 11.090 0 22.181 3.697 29.574 14.787 18.484 18.484 22.181 48.058 3.697 66.542l-136.78 162.657 140.477 158.96c18.484 22.181 14.787 51.755-3.697 66.542zM499.061 878.671c-236.592 0-428.823-192.231-428.823-432.52 0-236.592 192.231-428.823 432.52-428.823 236.592 0 428.823 192.231 428.823 428.823 0 0 0 0 0 0 0 240.289-192.231 432.52-432.52 432.52zM502.758 113.444c-184.838 0-336.404 151.567-336.404 336.404s151.567 336.404 336.404 336.404c184.838 0 336.404-151.567 336.404-336.404-3.697-188.534-151.567-336.404-336.404-336.404z" />
<glyph unicode="&#xe924;" glyph-name="rozwi" horiz-adv-x="989" d="M492.473 267.57c-9.764 0.116-18.646 3.797-25.426 9.799l-258.497 224.526c-8.224 7.216-13.388 17.748-13.388 29.486 0 21.63 17.534 39.164 39.164 39.164 9.892 0 18.927-3.667 25.82-9.716l-0.044 0.038 234.325-202.691 236.668 203.082c6.077 4.089 13.561 6.527 21.615 6.527 21.569 0 39.054-17.485 39.054-39.054 0-10.402-4.067-19.854-10.696-26.853l0.017 0.018-262.444-224.952c-6.783-5.831-15.672-9.381-25.391-9.381-0.273 0-0.544 0.003-0.816 0.008l0.041-0.001z" />
<glyph unicode="&#xe925;" glyph-name="shield" horiz-adv-x="1029" d="M910.935 661.6v0c0 8.742 0 18.65 0 29.141-2.45 51.33-43.611 92.289-94.8 94.409l-0.198 0.007c-101.919 3.207-193.3 45.825-259.906 113.037l-0.028 0.029c-10.472 10.132-24.759 16.376-40.505 16.376s-30.034-6.244-40.521-16.392l0.016 0.015c-67.176-67.756-159.492-110.495-261.785-113.056l-0.48-0.010c-51.54-2.826-92.375-44.879-93.249-96.662l-0.001-0.085c0-10.491 0-19.816 0-29.141v0c-1.775-22.471-2.788-48.654-2.788-75.074 0-104.824 15.932-205.926 45.506-301.018l-1.922 7.173c25.372-68.582 63.932-127.012 112.961-174.742l0.104-0.101c60.866-57.538 134.516-102.241 216.187-129.365l4.116-1.185h9.325c3.942-0.831 8.472-1.307 13.113-1.307s9.171 0.476 13.544 1.381l-0.43-0.074h8.742c85.597 28.561 159.040 73.442 219.967 131.366l-0.247-0.233c48.911 47.866 87.28 106.295 111.437 171.614l1.046 3.229c27.765 87.798 43.763 188.77 43.763 293.478 0 27.166-1.077 54.081-3.19 80.704l0.224-3.514zM660.326 493.751v0l-174.843-174.843c-6.92-6.731-16.38-10.882-26.809-10.882s-19.889 4.151-26.818 10.89l0.009-0.009-67.606 67.023c-6.861 6.861-11.105 16.34-11.105 26.809 0 20.939 16.975 37.914 37.914 37.914 10.47 0 19.948-4.244 26.809-11.105v0l40.214-40.797 148.617 148.617c7 8.539 17.549 13.944 29.361 13.944 20.922 0 37.883-16.961 37.883-37.883 0-11.666-5.273-22.1-13.566-29.049l-0.059-0.048z" />
<glyph unicode="&#xe926;" glyph-name="star" horiz-adv-x="1146" d="M584.348 820.87l116.87-233.739c0-5.565 5.565-5.565 5.565-5.565l256-38.957c5.565 0 11.13-5.565 11.13-11.13 0 0 0-5.565-5.565-5.565l-183.652-178.087c-5.565 0-5.565-5.565-5.565-11.13l44.522-256c0-5.565-5.565-11.13-11.13-11.13 0 0-5.565 0-5.565 0l-228.174 122.435c-5.565 0-5.565 0-11.13 0l-228.174-122.435c-5.565-5.565-11.13 0-16.696 5.565 0 0 0 0 0 0s0 5.565 0 5.565l44.522 256c0 5.565 0 5.565-5.565 11.13l-183.652 178.087c-5.565 5.565-5.565 11.13 0 16.696 0 0 5.565 5.565 5.565 5.565l256 38.957c5.565-5.565 5.565 0 11.13 0l116.87 233.739c0 5.565 11.13 5.565 16.696 5.565 0 0 0 0 0 0-5.565 0 0 0 0-5.565z" />
<glyph unicode="&#xe927;" glyph-name="Wykroje" horiz-adv-x="927" d="M861.144 471.564v0l-159.321 154.87c-4.349 3.913-9.419 7.135-14.969 9.429l-0.348 0.127-103.552 42.154-97.53 71.086v40.583c23.366 1.419 41.791 20.666 41.892 44.239v0.010c-0.072 26.191-21.32 47.395-47.521 47.395-0.23 0-0.46-0.002-0.689-0.005h0.035c-0.039 0-0.085 0-0.131 0-25.115 0-45.483-20.322-45.557-45.42v-0.007c-0.249-0.955-0.393-2.052-0.393-3.183 0-7.23 5.861-13.091 13.091-13.091s13.091 5.861 13.091 13.091c0 1.13-0.143 2.227-0.413 3.273l0.020-0.091c-0.007 0.195-0.011 0.425-0.011 0.655 0 11.134 9.026 20.161 20.161 20.161 0.050 0 0.099 0 0.149-0.001h-0.008c0.122 0.002 0.267 0.004 0.412 0.004 12.363 0 22.386-10.023 22.386-22.386 0-0.324-0.007-0.646-0.020-0.966l0.002 0.046c0-10.484-8.499-18.982-18.982-18.982v0c-12.58 0-22.779-10.198-22.779-22.779v0-41.238l-95.959-72.264-106.432-42.154c-6.067-2.368-11.279-5.646-15.749-9.723l0.039 0.035-159.321-154.87c-8.806-8.531-14.272-20.465-14.272-33.676 0-18.301 10.49-34.153 25.785-41.869l0.269-0.123 133.924-65.456v-267.717c0-0.039 0-0.085 0-0.131 0-25.693 20.791-46.53 46.467-46.605h394.055c25.683 0.074 46.474 20.912 46.474 46.605 0 0 0 0 0 0v0 267.193l133.793 65.456c15.66 7.77 26.235 23.65 26.235 41.999 0 13.218-5.487 25.154-14.307 33.655l-0.014 0.014zM228.443 357.801v0l-122.665 60.874c-7.13 3.627-11.929 10.911-11.929 19.314 0 6.016 2.46 11.458 6.428 15.375l0.002 0.002 128.164 124.367v-219.934zM472.072 727.63l80.38-58.518-24.219-12.044c-15.919-8.054-34.704-12.771-54.591-12.771s-38.672 4.717-55.297 13.094l0.706-0.322-24.481 12.175zM383.182 646.595l24.612-12.306c19.201-9.723 41.86-15.418 65.849-15.418s46.649 5.695 66.7 15.807l-0.85-0.389 24.612 12.306v-22.124c0-0.053 0-0.117 0-0.18 0-15.511-3.926-30.104-10.839-42.841l0.235 0.474c-1.047-1.964-2.095-3.796-3.273-5.629v0l-1.178-1.833c-9.459-13.186-21.72-23.771-35.96-31.027l-0.564-0.261c-11.24-5.379-24.432-8.521-38.358-8.521-49.991 0-90.524 40.492-90.592 90.466v0.006zM690.041 62.593c0 0 0 0 0 0 0-11.667-9.421-21.133-21.070-21.207h-394.055c-11.683 0.074-21.134 9.525-21.208 21.201v530.073c0 0 0 0 0 0 0 8.831 5.332 16.417 12.952 19.714l0.139 0.054 90.723 35.87v-23.826c0.003-64.056 51.932-115.983 115.989-115.983 19.257 0 37.418 4.693 53.402 12.998l-0.644-0.304 3.796 1.964c0.898 0.486 1.673 1.051 2.361 1.706l-0.005-0.004c13.69 8.858 25.329 19.497 34.985 31.77l0.231 0.304 1.309 1.571c0 0.916 1.309 1.833 1.833 2.749v0.916c11.492 17.605 18.328 39.157 18.328 62.307 0 0.003 0 0.005 0 0.008v0 23.695l87.45-35.608c7.746-3.232 13.092-10.745 13.092-19.506 0-0.046 0-0.092 0-0.138v0.007zM849.755 434.647c-1.093-7.113-5.611-12.973-11.786-15.917l-0.127-0.055-122.403-60.874v219.934l128.033-124.367c4.053-3.828 6.575-9.239 6.575-15.239 0-1.23-0.106-2.435-0.309-3.607l0.018 0.125z" />
<glyph unicode="&#xe928;" glyph-name="wysyka" horiz-adv-x="1044" d="M732.135 598.879h-64.309v-12.367c0-2.473 0-2.473 0-4.947-2.473-17.314-17.314-29.681-34.628-27.208s-29.681 17.314-27.208 34.628v12.367h-143.459v-12.367c0-17.314-14.841-29.681-32.155-29.681 0 0 0 0 0 0-17.314 0-29.681 14.841-29.681 32.155v12.367h-66.783c-9.894 0-17.314-2.473-24.734-9.894s-9.894-14.841-9.894-24.734v-304.232c0-19.787 14.841-34.628 34.628-34.628h400.696c19.787 0 34.628 14.841 34.628 34.628v299.285c-2.473 17.314-17.314 34.628-37.101 34.628zM638.145 279.807c-19.787 0-37.101 17.314-37.101 37.101 0 0 0 0 0 0 0 19.787 17.314 37.101 37.101 37.101s37.101-17.314 37.101-37.101-17.314-37.101-37.101-37.101zM521.894 920.425c-259.71 0-472.425-212.715-472.425-472.425s210.242-472.425 472.425-472.425 472.425 210.242 472.425 472.425-210.242 472.425-472.425 472.425zM818.705 260.019c0-46.995-37.101-84.097-84.097-86.57h-400.696c-46.995 0-84.097 37.101-84.097 86.57v304.232c0 46.995 37.101 84.097 84.097 86.57h66.783v12.367c0 17.314 14.841 32.155 32.155 32.155s32.155-14.841 32.155-32.155v-12.367h143.459v12.367c2.473 14.841 12.367 27.208 27.208 27.208 17.314 2.473 32.155-9.894 34.628-27.208v-12.367h66.783c46.995 0 84.097-37.101 84.097-86.57v-304.232z" />
<glyph unicode="&#xe929;" glyph-name="wyszukiwarka" horiz-adv-x="1014" d="M924.596 78.979v0l-236.028 222.411 5.901 7.262c41.461 55.288 66.392 125.048 66.392 200.631 0 185.001-149.363 335.116-334.077 336.333l-0.116 0.001c-180.116-6.831-323.541-154.496-323.541-335.66s143.425-328.828 322.921-335.641l0.62-0.019c0.078 0 0.171 0 0.264 0 82.255 0 157.576 29.687 215.833 78.932l-0.494-0.407 7.262 5.901 236.028-222.411c5.434-5.14 12.788-8.3 20.879-8.3s15.445 3.16 20.894 8.314l-0.014-0.013c5.242 5.389 8.475 12.757 8.475 20.879s-3.233 15.49-8.482 20.886l0.007-0.007zM426.213 233.759v0c-0.148 0-0.323 0-0.499 0-151.412 0-274.483 121.337-277.285 272.079l-0.004 0.262v19.518c8.406 145.628 128.554 260.539 275.54 260.539 0.152 0 0.303 0 0.455 0h-0.023c6.073 0.474 13.151 0.745 20.292 0.745 152.916 0 276.879-123.963 276.879-276.879s-123.963-276.879-276.879-276.879c-6.501 0-12.95 0.224-19.339 0.665l0.863-0.048z" />
<glyph unicode="&#xe92a;" glyph-name="yes" horiz-adv-x="986" d="M836.776 379.224c0 15.284-7.642 30.567-19.104 42.030 11.463 15.284 19.104 30.567 15.284 49.672-3.821 34.388-34.388 61.134-68.776 61.134h-164.299c11.463 34.388 19.104 68.776 19.104 106.985 0 57.313-49.672 106.985-80.239 106.985-19.104 0-34.388-3.821-49.672-15.284-3.821-3.821-3.821-7.642-3.821-11.463v-91.701l-76.418-164.299h-3.821v3.821c0 7.642-7.642 11.463-11.463 11.463 0 0 0 0 0 0h-126.090c-38.209 0-68.776-26.746-68.776-64.955 0 0 0 0 0 0v-213.97c0-38.209 30.567-64.955 64.955-64.955 0 0 0 0 0 0h76.418c26.746 0 53.493 19.104 61.134 45.851 22.925-11.463 45.851-15.284 68.776-19.104h244.537c34.388 0 61.134 22.925 61.134 57.313 0 11.463 0 19.104-7.642 30.567 30.567 15.284 42.030 49.672 26.746 80.239 0 0 0 0 0 0 30.567 7.642 42.030 26.746 42.030 49.672zM343.881 161.433c0 0 0 0 0 0h-76.418c-22.925 0-38.209 19.104-38.209 38.209v213.97c0 22.925 15.284 38.209 34.388 38.209 0 0 0 0 3.821 0h118.448v-7.642c0 0 0-3.821 0-3.821v-236.896c0-22.925-19.104-42.030-42.030-42.030zM787.104 413.612c0-3.821 3.821-3.821 3.821-3.821 15.284-7.642 22.925-26.746 15.284-42.030 0 0 0 0 0 0-3.821-11.463-15.284-15.284-26.746-19.104l3.821 3.821c-7.642 0-11.463-7.642-11.463-15.284 0 0 0 0 0 0 0-3.821 0-7.642 3.821-7.642 15.284-11.463 15.284-34.388 3.821-45.851-3.821-7.642-11.463-11.463-22.925-11.463-7.642 0-11.463-7.642-11.463-15.284 0 0 0 0 0 0 0-3.821 0-7.642 3.821-7.642 7.642-7.642 11.463-19.104 11.463-30.567-3.821-15.284-19.104-26.746-34.388-26.746h-244.537c-22.925 0-45.851 7.642-64.955 19.104v221.612l19.104 11.463c3.821 0 3.821 3.821 7.642 7.642l80.239 171.94c0 0 0 3.821 0 3.821v84.060c7.642 3.821 19.104 7.642 26.746 7.642 30.567-15.284 53.493-45.851 53.493-80.239-3.821-38.209-11.463-76.418-26.746-114.627-3.821-7.642 0-15.284 7.642-19.104h187.224c22.925 0 42.030-15.284 42.030-38.209 3.821-15.284-3.821-30.567-19.104-38.209-11.463 0-11.463-7.642-7.642-15.284z" />
<glyph unicode="&#xe92b;" glyph-name="microphone" d="M839.68 431.134c0 20.48-15.661 36.141-36.141 36.141s-36.141-15.661-36.141-36.141c0-140.951-114.447-255.398-255.398-255.398s-255.398 114.447-255.398 255.398c0 20.48-15.661 36.141-36.141 36.141s-36.141-15.661-36.141-36.141c0-167.454 125.289-308.405 291.539-326.475v-96.376h-131.313c-20.48 0-36.141-15.661-36.141-36.141s15.661-36.141 36.141-36.141h334.908c20.48 0 36.141 15.661 36.141 36.141s-15.661 36.141-36.141 36.141h-131.313v96.376c166.249 18.071 291.539 159.021 291.539 326.475zM512 960c-110.833 0-201.186-90.353-201.186-201.186v-326.475c0-112.038 90.353-201.186 201.186-202.391 110.833 0 201.186 90.353 201.186 201.186v327.68c0 110.833-90.353 201.186-201.186 201.186z" />
<glyph unicode="&#xe92c;" glyph-name="exclamation-mark_black" d="M512 960c-282.77 0-512-229.23-512-512s229.23-512 512-512c282.77 0 512 229.23 512 512v0c0 282.77-229.23 512-512 512v0zM460.8 721.408h99.328v-233.984l-12.8-164.352h-74.752l-11.776 164.352zM558.592 145.92c-11.869-10.555-27.594-17.004-44.825-17.004-1.342 0-2.675 0.039-3.998 0.116l0.183-0.009c-1.448-0.113-3.135-0.177-4.837-0.177-17.080 0-32.645 6.483-44.37 17.122l0.055-0.049c-11.144 11.798-17.994 27.755-17.994 45.312s6.85 33.514 18.024 45.344l-0.030-0.032c11.442 10.843 26.935 17.511 43.986 17.511 1.277 0 2.545-0.037 3.804-0.111l-0.174 0.008c1.001 0.054 2.174 0.085 3.353 0.085 17.299 0 33.044-6.65 44.819-17.534l-0.044 0.040c11.108-10.724 18.006-25.747 18.006-42.382 0-1.121-0.031-2.234-0.093-3.34l0.007 0.153c0.097-1.279 0.153-2.771 0.153-4.275 0-15.772-6.095-30.12-16.058-40.817l0.033 0.036z" />
<glyph unicode="&#xe92d;" glyph-name="eye_closed" horiz-adv-x="1576" d="M799.579 666.971v0c-25.442-0.616-49.603-5.264-72.139-13.326l1.607 0.502 256.481-173.125c-3.428 101.288-84.66 182.521-185.629 185.94l-0.32 0.009zM1562.61 506.67c-163.96 254.8-446.114 421.157-767.124 421.157-130.673 0-254.907-27.566-367.205-77.2l5.812 2.293 128.24-83.356c68.802 24.12 148.128 38.183 230.699 38.472h0.134c2.349 0.026 5.125 0.041 7.904 0.041 259.883 0 489.137-131.136 625.202-330.846l1.685-2.62c-46.28-67.475-101.51-124.744-164.803-171.769l-1.909-1.356 109.004-76.944c71.481 58.999 132.928 126.56 183.819 201.843l2.13 3.342c12.188 9.835 19.92 24.772 19.92 41.514 0 13.631-5.125 26.065-13.552 35.481l0.045-0.051zM100.669 949.1c-9.981 6.72-22.274 10.726-35.504 10.726-22.747 0-42.728-11.845-54.11-29.703l-0.154-0.259c-6.72-9.981-10.726-22.274-10.726-35.504 0-22.747 11.845-42.728 29.703-54.11l0.259-0.154 185.949-121.828c-72.937-59.656-134.656-129.537-183.875-208.051l-2.073-3.546c-6.083-11.131-9.661-24.384-9.661-38.472s3.578-27.341 9.874-38.899l-0.213 0.427c166.235-253.278 448.923-418.216 770.136-418.216 134.359 0 261.978 28.858 376.996 80.715l-5.792-2.336 218.009-141.064c11.011-6.802 24.082-11.385 38.090-12.793l0.382-0.031c23.853 1.469 44.577 13.688 57.551 31.829l0.157 0.231c6.72 9.981 10.726 22.274 10.726 35.504 0 22.747-11.845 42.728-29.703 54.11l-0.259 0.154zM793.167 134.773v0c-2.349-0.026-5.125-0.041-7.904-0.041-259.883 0-489.137 131.136-625.202 330.846l-1.685 2.62c46.393 66.709 101.599 123.342 164.742 169.817l1.97 1.384 275.717-179.537c5.521-102.629 89.13-184.005 192.173-185.946l0.188-0.003c25.61 1.261 49.698 5.859 72.457 13.375l-1.925-0.551 173.125-115.416c-70.33-23.207-151.283-36.593-235.363-36.593-2.916 0-5.828 0.016-8.737 0.048l0.443-0.004z" />
<glyph unicode="&#xe92e;" glyph-name="eye" horiz-adv-x="1752" d="M872.614 667.225c-1.293 0.028-2.816 0.044-4.344 0.044-118.314 0-214.226-95.912-214.226-214.226 0-1.773 0.022-3.541 0.064-5.304l-0.005 0.261c-0.227-3.738-0.357-8.107-0.357-12.507 0-121.074 98.15-219.225 219.225-219.225s219.225 98.15 219.225 219.225c0 4.4-0.13 8.769-0.385 13.105l0.028-0.598c0.038 1.506 0.060 3.28 0.060 5.058 0 118.314-95.912 214.226-214.226 214.226-1.779 0-3.552-0.022-5.321-0.065l0.262 0.005zM872.614 373.735c-39.438 0-71.409 31.971-71.409 71.409v0c0 40.818 33.090 73.908 73.908 73.908s73.908-33.090 73.908-73.908v0c0-0.052 0-0.114 0-0.175 0-39.438-31.971-71.409-71.409-71.409-1.759 0-3.503 0.064-5.23 0.189l0.231-0.013zM1735.23 491.559c-186.144 283.774-502.798 468.586-862.616 468.586s-676.471-184.811-860.214-464.689l-2.402-3.898c-6.453-12.697-10.233-27.687-10.233-43.559s3.78-30.862 10.489-44.118l-0.256 0.559c184.888-283.6 500.566-468.446 859.417-468.446 1.125 0 2.25 0.002 3.374 0.005h-0.174c0.604-0.001 1.319-0.002 2.035-0.002 359.19 0 675.216 184.808 858.178 464.526l2.404 3.917c10.254 11.535 16.517 26.816 16.517 43.559s-6.264 32.024-16.576 43.626l0.058-0.067zM872.614 75.247c-2.093-0.018-4.567-0.029-7.043-0.029-292.367 0-550.536 146.42-705.178 369.931l-1.865 2.851c160.020 224.521 419.491 369.184 712.75 369.184 0.47 0 0.939 0 1.409-0.001h-0.072c2.237 0.021 4.882 0.033 7.53 0.033 292.064 0 550.001-146.117 704.697-369.237l1.86-2.835c-156.695-224.735-413.936-369.944-705.092-369.944-3.162 0-6.321 0.017-9.475 0.051l0.48-0.004z" />
<glyph unicode="&#xe92f;" glyph-name="prenumerata-kolekcji" horiz-adv-x="1213" d="M60.621 192h202.24c11.311 0 20.48 9.169 20.48 20.48v0 0c0 11.311-9.169 20.48-20.48 20.48v0h-202.24c-11.311 0-20.48 9.169-20.48 20.48v0 565.043c0 11.311 9.169 20.48 20.48 20.48v0h202.24c11.311 0 20.48 9.169 20.48 20.48v0 0c0 11.311-9.169 20.48-20.48 20.48v0h-202.24c-0.002 0-0.004 0-0.006 0-33.48 0-60.621-27.141-60.621-60.621 0-0.288 0.002-0.576 0.006-0.863v0.043-566.17c0.174-33.348 27.248-60.314 60.62-60.314 0 0 0.001 0 0.001 0v0zM545.894 441.549h121.344c0.744-0.033 1.616-0.051 2.493-0.051 33.536 0 60.723 27.187 60.723 60.723s-27.187 60.723-60.723 60.723c-0.877 0-1.749-0.019-2.617-0.055l0.124 0.004h-121.344c-32.446-1.375-58.23-28.012-58.23-60.672s25.784-59.297 58.106-60.668l0.124-0.004zM545.894 522.445h121.344c11.311 0 20.48-9.169 20.48-20.48s-9.169-20.48-20.48-20.48v0h-121.344c-11.311 0-20.48 9.169-20.48 20.48s9.169 20.48 20.48 20.48v0zM1152.512 879.104h-202.138c-11.311 0-20.48-9.169-20.48-20.48v0 0c0-11.311 9.169-20.48 20.48-20.48v0h202.138c11.311 0 20.48-9.169 20.48-20.48v0-565.35c0-11.311-9.169-20.48-20.48-20.48v0h-202.138c-11.311 0-20.48-9.169-20.48-20.48v0 0c0-11.311 9.169-20.48 20.48-20.48v0h202.138c0 0 0 0 0 0 33.501 0 60.665 27.128 60.723 60.615v566.995c-0.058 33.492-27.223 60.621-60.723 60.621 0 0 0 0 0 0v0zM753.357 603.238h-292.557c-17.226 0.058-31.174 14.006-31.232 31.226v173.164c0.058 17.226 14.006 31.174 31.226 31.232h292.563c17.226-0.058 31.174-14.006 31.232-31.226v-173.164c-0.058-17.226-14.006-31.174-31.226-31.232h-0.006zM462.95 636.928h287.949v168.243h-287.949zM384.205 151.040v0c-11.311 0-20.48 9.169-20.48 20.48v0 727.859c0 11.311 9.169 20.48 20.48 20.48v0h445.235c11.311 0 20.48-9.169 20.48-20.48v0-615.219c0-11.311 9.169-20.48 20.48-20.48v0 0c11.311 0 20.48 9.169 20.48 20.48v0 614.4c0.004 0.245 0.006 0.535 0.006 0.825 0 33.48-27.141 60.621-60.621 60.621-0.29 0-0.58-0.002-0.869-0.006h-445.191c0 0 0 0 0 0-33.501 0-60.665-27.128-60.723-60.615v-727.865c0.058-33.492 27.223-60.621 60.723-60.621 0 0 0 0 0 0v0c0.001 0 0.002 0 0.002 0 10.689 0 19.354 8.665 19.354 19.354 0 0.108-0.001 0.216-0.003 0.323v-0.016 1.638c-0.34 10.445-8.864 18.79-19.349 18.842h-0.005zM907.264-43.52v219.955c0.002 0.192 0.003 0.418 0.003 0.645 0 30.317-21.563 55.598-50.189 61.342l-0.4 0.067c-2.953 0.503-6.354 0.79-9.822 0.79-15.1 0-28.928-5.447-39.626-14.484l0.091 0.075-1.126-1.024c-10.671 9.618-24.873 15.502-40.448 15.502s-29.777-5.884-40.502-15.55l0.054 0.048c-10.965 9.405-25.326 15.13-41.024 15.13-7.044 0-13.818-1.153-20.145-3.28l0.446 0.13v102.4c0.004 0.266 0.006 0.579 0.006 0.894 0 30.132-21.37 55.272-49.78 61.092l-0.402 0.069c-3.048 0.542-6.557 0.852-10.138 0.852-33.536 0-60.723-27.187-60.723-60.723 0-0.012 0-0.023 0-0.035v0.002-247.398l-53.658 32.256c-8.202 5.006-18.126 7.97-28.741 7.97-9.121 0-17.732-2.188-25.335-6.068l0.316 0.146-3.174-1.638c-18.481-9.381-30.925-28.246-30.925-50.017 0-18.701 9.182-35.258 23.284-45.409l0.166-0.114 126.566-90.419c3.13-2.172 6.973-3.528 11.123-3.685l0.039-0.001h323.789c11.222 0.116 20.275 9.24 20.275 20.479 0 0 0 0.001 0 0.001v0zM866.816-23.040h-296.96l-121.242 86.118c-3.969 2.858-6.522 7.465-6.522 12.669 0 6.005 3.401 11.216 8.382 13.812l0.086 0.041 3.174 1.536c2.001 1.022 4.365 1.621 6.868 1.621 2.95 0 5.706-0.832 8.046-2.274l-0.066 0.038 84.378-50.483c2.938-1.727 6.472-2.746 10.244-2.746 11.16 0 20.236 8.927 20.475 20.030v283.056c0.14 11.204 9.255 20.232 20.478 20.232 1.158 0 2.293-0.096 3.398-0.281l-0.12 0.017c9.918-2.233 17.215-10.966 17.215-21.404 0-0.251-0.004-0.502-0.013-0.751l0.001 0.036v-159.539c0-11.311 9.169-20.48 20.48-20.48s20.48 9.169 20.48 20.48v0c1.614 9.837 10.053 17.252 20.224 17.252s18.61-7.414 20.208-17.133l0.016-0.119c0-11.311 9.169-20.48 20.48-20.48s20.48 9.169 20.48 20.48v0c0 11.311 9.169 20.48 20.48 20.48s20.48-9.169 20.48-20.48v0c0-11.311 9.169-20.48 20.48-20.48s20.48 9.169 20.48 20.48v0c0.338 11.046 9.374 19.872 20.471 19.872 0.183 0 0.366-0.002 0.548-0.007l-0.027 0.001c9.668-2.463 16.704-11.093 16.704-21.366 0-0.265-0.005-0.528-0.014-0.791l0.001 0.038zM122.061 688.435h143.872c9.501 0 17.203-7.702 17.203-17.203v-6.042c0-9.501-7.702-17.203-17.203-17.203h-143.872c-9.501 0-17.203 7.702-17.203 17.203v6.042c0 9.501 7.702 17.203 17.203 17.203zM122.061 603.341h143.872c9.501 0 17.203-7.702 17.203-17.203v-6.042c0-9.501-7.702-17.203-17.203-17.203h-143.872c-9.501 0-17.203 7.702-17.203 17.203v6.042c0 9.501 7.702 17.203 17.203 17.203zM947.302 688.435h143.872c9.501 0 17.203-7.702 17.203-17.203v-6.042c0-9.501-7.702-17.203-17.203-17.203h-143.872c-9.501 0-17.203 7.702-17.203 17.203v6.042c0 9.501 7.702 17.203 17.203 17.203zM947.302 603.341h143.872c9.501 0 17.203-7.702 17.203-17.203v-6.042c0-9.501-7.702-17.203-17.203-17.203h-143.872c-9.501 0-17.203 7.702-17.203 17.203v6.042c0 9.501 7.702 17.203 17.203 17.203z" />
<glyph unicode="&#xe930;" glyph-name="dodatki-i-szycie" d="M112.026 892.006c-8.257 0-14.95-6.694-14.95-14.95v0-155.341c0.661-7.762 7.125-13.812 15.002-13.812s14.341 6.050 14.998 13.757l0.004 0.056v155.341c0 0 0 0 0 0 0 8.257-6.694 14.95-14.95 14.95-0.036 0-0.072 0-0.108 0h0.006zM437.658 721.715v155.341c-0.661 7.762-7.125 13.812-15.002 13.812s-14.341-6.050-14.998-13.757l-0.004-0.056v-155.341c0.661-7.762 7.125-13.812 15.002-13.812s14.341 6.050 14.998 13.757l0.004 0.056zM267.366 620.237c-24.375 0-44.134-19.76-44.134-44.134s19.76-44.134 44.134-44.134c24.375 0 44.134 19.76 44.134 44.134v0c-0.058 24.351-19.783 44.076-44.129 44.134h-0.006zM267.366 561.971c-7.804 0-14.131 6.327-14.131 14.131s6.327 14.131 14.131 14.131c7.804 0 14.131-6.327 14.131-14.131v0c0-7.804-6.327-14.131-14.131-14.131v0zM1004.442 927.437c-16.199 19.863-40.671 32.445-68.082 32.445-45.122 0-82.281-34.094-87.121-77.926l-0.035-0.394c-0.32-2.803-0.503-6.052-0.503-9.344 0-20.916 7.377-40.108 19.672-55.117l-0.122 0.154c2.839-3.457 5.752-6.565 8.855-9.473l0.054-0.050-12.8-152.064c-0.027-0.108-0.042-0.231-0.042-0.358s0.015-0.251 0.045-0.369l-0.002 0.011-22.221-261.837h-35.533v66.56c-0.059 37.396-15.757 71.114-40.902 94.973l-0.058 0.054 5.222 247.296c21.658 16.146 35.533 41.69 35.533 70.474 0 48.41-39.244 87.654-87.654 87.654s-87.654-39.244-87.654-87.654c0-28.785 13.875-54.329 35.301-70.309l0.232-0.165 4.608-210.637h-248.525c-15.491-0.028-30.343-2.727-44.132-7.66l0.919 0.287v54.784h43.213c61.766 0.347 111.737 50.354 112.025 112.1v97.103c-1.885 60.452-51.342 108.74-112.077 108.74s-110.192-48.288-112.073-108.567l-0.004-0.173v-97.075c0-23.866-19.347-43.213-43.213-43.213s-43.213 19.347-43.213 43.213v97.075c-1.885 60.452-51.342 108.74-112.077 108.74s-110.192-48.288-112.073-108.567l-0.004-0.173v-97.075c0 0 0-0.001 0-0.002 0-61.993 50.081-112.29 111.992-112.638h43.348v-245.76h-51.2c-19.002 0-34.406-15.404-34.406-34.406v0-368.64c0.232-29.571 24.257-53.453 53.861-53.453 0.037 0 0.073 0 0.11 0h776.596c29.703 0.058 53.76 24.151 53.76 53.862 0 0 0 0 0 0v0 368.64c-0.021 15.461-10.205 28.537-24.229 32.907l-0.244 0.066 51.2 405.197c3.874 2.375 7.218 4.807 10.358 7.471l-0.118-0.098c19.838 16.161 32.406 40.589 32.406 67.954 0 20.88-7.318 40.051-19.529 55.088l0.127-0.162zM661.299 872.346c0 31.84 25.811 57.651 57.651 57.651s57.651-25.811 57.651-57.651c0-31.84-25.811-57.651-57.651-57.651v0c-31.816 0.058-57.593 25.835-57.651 57.646v0.006zM740.762 787.456l-4.506-211.456c-10.108 5.482-21.825 9.803-34.19 12.35l-0.831 0.143-4.096 198.963c6.549-1.692 14.066-2.664 21.811-2.664s15.263 0.972 22.438 2.799l-0.627-0.135zM675.123 560.64c55.998-0.116 101.362-45.48 101.478-101.467v-349.093l-71.68 71.68c-2.626 2.639-6.229 4.304-10.221 4.403h-0.019c-4.019-0.053-7.637-1.728-10.237-4.4l-71.683-71.683v349.594c-0.268 40.639-18.945 76.862-48.102 100.783l-0.23 0.183zM379.494 551.014c12.662 6.058 27.521 9.605 43.206 9.626h58.58c55.998-0.116 101.362-45.48 101.478-101.467v-66.571h-203.264zM112.026 668.774c-45.243 0-81.92 36.677-81.92 81.92v0 97.28c0 45.243 36.677 81.92 81.92 81.92s81.92-36.677 81.92-81.92v0-97.075c0-40.436 32.78-73.216 73.216-73.216s73.216 32.78 73.216 73.216v97.075c0 45.243 36.677 81.92 81.92 81.92s81.92-36.677 81.92-81.92v0-97.075c0-45.243-36.677-81.92-81.92-81.92v0h-57.856c-8.257 0-14.95-6.694-14.95-14.95v0-140.595h-163.84v140.39c0 0 0 0 0 0 0 8.257-6.694 14.95-14.95 14.95-0.036 0-0.072 0-0.108 0h0.006zM349.491 483.43v-90.317h-67.072v90.317zM252.416 483.43v-90.317h-67.072v90.317zM924.058-10.138c0-0.030 0-0.066 0-0.102 0-13.121-10.636-23.757-23.757-23.757 0 0 0 0 0 0h-776.602c-13.177 0-23.859 10.682-23.859 23.859v0 368.64c0.057 2.444 2.052 4.403 4.504 4.403 0 0 0.001 0 0.001 0h478.106v-265.318c0.071-13.632 11.139-24.655 24.78-24.655 6.786 0 12.936 2.728 17.411 7.147l-0.003-0.003 69.837 69.939 69.939-69.939c4.473-4.417 10.622-7.145 17.408-7.145 13.642 0 24.709 11.023 24.78 24.648v265.53h112.64c2.432 0 4.403-1.971 4.403-4.403v0zM899.482 393.114h-27.238l21.402 253.133c-0.020 0.108-0.032 0.232-0.032 0.358s0.011 0.251 0.034 0.371l-0.002-0.013 11.981 143.36c6.229-2.381 13.473-4.149 21-4.982l0.402-0.036c3.305-0.417 7.129-0.655 11.008-0.655s7.703 0.238 11.458 0.7l-0.45-0.045zM993.28 866.304c-3.16-29.133-27.622-51.61-57.334-51.61-31.84 0-57.651 25.811-57.651 57.651 0 31.836 25.805 57.645 57.64 57.651h0.001l6.144-0.717c29.091-3.203 51.52-27.644 51.52-57.324 0-2.135-0.116-4.243-0.342-6.318l0.023 0.257z" />
<glyph unicode="&#xe931;" glyph-name="Prasa" horiz-adv-x="1269" d="M1249.28 960h-450.56c-0.154 0-0.337 0.001-0.519 0.001-64.559 0-122.103-30.037-159.418-76.898l-0.319-0.414-3.584-4.608-4.096 5.018c-37.617 47.038-95.003 76.907-159.366 76.907-0.493 0-0.986-0.002-1.478-0.005h-450.484c-10.76-0.229-19.401-8.978-19.456-19.758v-984.479c0.058-10.892 8.872-19.705 19.758-19.763h1229.523c10.892 0.058 19.705 8.872 19.763 19.758v984.48c-0.058 10.892-8.872 19.705-19.758 19.763h-0.006zM39.629 920.371h430.080c0.166 0.001 0.362 0.001 0.559 0.001 61.435 0 115.066-33.417 143.706-83.065l0.426-0.801 0.614-1.229v-793.805l-9.011 7.168c-35.913 31.789-83.421 51.201-135.463 51.201-0.184 0-0.368 0-0.553-0.001h-430.051zM39.629-24.371v85.299h430.080c0.133 0 0.29 0.001 0.448 0.001 58.577 0 110.001-30.625 139.133-76.738l0.399-0.677 5.018-7.885zM1229.21-24.371h-575.386l5.018 7.885c29.532 46.789 80.956 77.415 139.533 77.415 0.122 0 0.243 0 0.365 0h430.061zM1229.21 100.557h-430.49c-0.186 0.001-0.406 0.001-0.626 0.001-52.042 0-99.551-19.412-135.68-51.389l0.217 0.188-8.602-7.578v793.498l0.717 1.229c28.992 50.443 82.569 83.866 143.953 83.866 0.008 0 0.015 0 0.023 0h430.079zM464.282 420.045c3.656-3.443 8.595-5.559 14.029-5.559s10.373 2.116 14.039 5.569l-0.010-0.010c3.606 3.597 5.837 8.571 5.837 14.065 0 10.971-8.894 19.866-19.866 19.866s-19.866-8.894-19.866-19.866c0-5.495 2.231-10.469 5.836-14.065v0zM381.952 453.939h-229.888c-10.341-0.766-18.44-9.345-18.44-19.814s8.1-19.048 18.375-19.81l0.066-0.004h229.888c0.427-0.033 0.924-0.051 1.425-0.051 10.971 0 19.866 8.894 19.866 19.866s-8.894 19.866-19.866 19.866c-0.502 0-0.999-0.019-1.491-0.055l0.066 0.004zM478.31 553.882h-326.246c-10.341-0.766-18.44-9.345-18.44-19.814s8.1-19.048 18.375-19.81l0.066-0.004h326.246c10.341 0.766 18.44 9.345 18.44 19.814s-8.1 19.048-18.375 19.81l-0.066 0.004zM1023.078 384.41h-229.888c-10.341-0.766-18.44-9.345-18.44-19.814s8.1-19.048 18.375-19.81l0.066-0.004h229.99c0.427-0.033 0.924-0.051 1.425-0.051 10.971 0 19.866 8.894 19.866 19.866s-8.894 19.866-19.866 19.866c-0.502 0-0.999-0.019-1.491-0.055l0.066 0.004zM1119.437 484.352h-326.246c-10.341-0.766-18.44-9.345-18.44-19.814s8.1-19.048 18.375-19.81l0.066-0.004h326.246c10.341 0.766 18.44 9.345 18.44 19.814s-8.1 19.048-18.375 19.81l-0.066 0.004zM138.547 640.512h339.763c10.927 0.058 19.763 8.93 19.763 19.865 0 0 0 0 0 0v0 139.878c0 0 0 0 0 0 0 10.935-8.836 19.807-19.758 19.865h-339.769c-10.971 0-19.866-8.894-19.866-19.866v0-139.878c0-10.971 8.894-19.866 19.866-19.866v0zM158.31 780.493h300.134v-100.352h-300.134zM1004.851 719.974c0-0.030 0-0.067 0-0.103 0-10.858 8.802-19.661 19.661-19.661 0.036 0 0.072 0 0.108 0h94.816c10.341 0.766 18.44 9.345 18.44 19.814s-8.1 19.048-18.375 19.81l-0.066 0.004h-94.822c0 0 0 0 0 0-10.915 0-19.763-8.848-19.763-19.763 0-0.036 0-0.072 0-0.108v0.006zM1004.851 643.174c0-0.030 0-0.067 0-0.103 0-10.858 8.802-19.661 19.661-19.661 0.036 0 0.072 0 0.108 0h94.816c10.341 0.766 18.44 9.345 18.44 19.814s-8.1 19.048-18.375 19.81l-0.066 0.004h-94.822c0 0 0 0 0 0-10.915 0-19.763-8.848-19.763-19.763 0-0.036 0-0.072 0-0.108v0.006zM1004.851 800.256c0-10.915 8.848-19.763 19.763-19.763v0h94.822c10.341 0.766 18.44 9.345 18.44 19.814s-8.1 19.048-18.375 19.81l-0.066 0.004h-94.822c0 0 0 0 0 0-10.915 0-19.763-8.848-19.763-19.763 0-0.036 0-0.072 0-0.108v0.006zM789.709 540.16h139.878c0.003 0 0.006 0 0.010 0 10.971 0 19.866 8.894 19.866 19.866 0 0.216-0.003 0.431-0.010 0.646l0.001-0.031v239.616c0 10.971-8.894 19.866-19.866 19.866v0h-139.878c-10.971 0-19.866-8.894-19.866-19.866v0-239.616c-0.006-0.183-0.010-0.398-0.010-0.614 0-10.971 8.894-19.866 19.866-19.866 0.003 0 0.007 0 0.010 0h-0.001zM809.472 780.083h100.352v-199.885h-100.352z" />
</font>
</defs>
</svg>
